[ Сегодня на трекере фрилич! Идет свободное скачивание без начисления Download ]

Блеск и нищета куртизанок / Splendeurs et misères des courtisanes (Серии 1—9 из 9) (Морис Казенёв) [1975, экранизация, драма, DVDRip] MVO

 

Создавать темы 27-Май-2016 12:19

--Блеск и нищета куртизанок / Splendeurs et misères des courtisanes--
  • Год выпуска: 1975
  • Страна: Франция, Бельгия, Швейцария, Германия (ФРГ)
  • Жанр: экранизация, драма
  • Продолжительность: 9 х ~00:57:00
  • Перевод: Профессиональный (многоголосый закадровый)-
  • Режиссёр: Морис Казенёв-
  • В ролях: Жорж Жере, Бруно Гарсен, Хольгер Лёвенадлер, Иван Десни, Жан Винигер, Мишель Пейрелон, Корина Ле Пулен, Паскаль Одре, Малка Рибовска, Мартин Сарси...-
  • Сериал по одноименному роману Оноре де Бальзака со сложной интригой и большим количеством действующих лиц — представителей самых разнообразных слоев парижского общества: высшего света, уголовного мира, «полусвета». Молодой человек по имени Люсьен Шардан собирается застрелиться на берегу реки. Его останавливает от непоправимого шага проезжавший мимо священник Карлос Эррера. Аббат едет во Францию по поручению испанского короля с секретной миссией. Он предлагает молодому человеку покровительство и деньги, и обещает помочь поквитаться с врагами. И вот Люсьену Шардану возвращено фамильное имя де Рюбампре. Теперь он постоянно бывает в свете, перед ним вновь открываются двери домов, захлопнувшиеся 10 лет назад. Блистательный Люсьен пользуется благосклонностью прекрасных дам. Но вскоре неожиданно влюбляется в девушку легкого поведения Эстер… «Блеск и нищета куртизанок» — возможно, самый блестящий из эпизодов бальзаковской «Человеческой комедии». Этот фильм, пожалуй, беспощаднейший и жесточайший из портретов современного Бальзаку Парижа — Парижа, где продается и покупается все — карьера и положение, дружба и любовь. Здесь — во всем своем ослепительном блеске и во всей своей душевной нищете царят «богини продажной любви» — парижские куртизанки...-
  • Премьера в мире: 20 декабря 1975--
  • --
  • Качество видео: DVDRip
  • Формат видео: AVI
  • Видео кодек: XviD
  • Аудио кодек: AC3
  • Видео: 720x512 (1.41:1), 25.000 fps, XviD MPEG-4, ~1915 kbps avg, 0.208 bit/pixel
  • Аудио: 48.0 kHz, AC3 Dolby Digital, 2/0 (L,R) ch, ~192.00 kbps avg
  • Субтитры: нет
--

Media Info

General
Complete name : D:\O.S.A.\Мои видеозаписи\Сборник старых фильмов\Blesk.i.nischeta.kurtizanok.(9.serij.iz.9).1975.XviD.DVDRip.GeimsLast\Blesk.i.nischeta.kurtizanok.(1.serya.iz.9).1975.XviD.DVDRip.GeimsLast.avi
Format : AVI
Format/Info : Audio Video Interleave
File size : 852 MiB
Duration : 56mn 18s
Overall bit rate : 2 116 Kbps
Movie name : C
Director : G
Writing application : VirtualDubModRus 1.5.10.2 (build 2542/release)
Writing library : VirtualDubMod build 2542/release
Video
ID : 0
Format : MPEG-4 Visual
Format profile : Advanced [email protected]
Format settings, BVOP : 1
Format settings, QPel : No
Format settings, GMC : No warppoints
Format settings, Matrix : Default (MPEG)
Muxing mode : Packed bitstream
Codec ID : XVID
Codec ID/Hint : XviD
Duration : 56mn 18s
Bit rate : 1 915 Kbps
Width : 720 pixels
Height : 512 pixels
Display aspect ratio : 1.406
Frame rate : 25.000 fps
Color space : YUV
Chroma subsampling : 4:2:0
Bit depth : 8 bits
Scan type : Progressive
Compression mode : Lossy
Bits/(Pixel*Frame) : 0.208
Stream size : 771 MiB (90%)
Writing library : XviD 1.2.1 (UTC 2008-12-04)
Audio
ID : 1
Format : AC-3
Format/Info : Audio Coding 3
Mode extension : CM (complete main)
Codec ID : 2000
Duration : 56mn 18s
Bit rate mode : Constant
Bit rate : 192 Kbps
Channel(s) : 2 channels
Channel positions : Front: L R
Sampling rate : 48.0 KHz
Bit depth : 16 bits
Compression mode : Lossy
Stream size : 77.3 MiB (9%)
Alignment : Split accross interleaves
Interleave, duration : 40 ms (1.00 video frame)
Interleave, preload duration : 500 ms
---- --
Яндекс.Метрика
Рейтинг@Mail.ru