(Thrash Metal) Destruction - Under Attack - 2016 [FLAC, image+.cue, lossless]

 

Создавать темы 27-Май-2016 03:19

-Destruction - Under Attack-- Год издания: 2016
Страна: Germany
Жанр: Thrash Metal
Продолжительность: 57:11-Лейбл издания: Ward Records, Inc.
Тип альбома: Master
Страна-выпуска диска: Japan
Номер по каталогу: [GQCS-90146]
Источник (релизер): RMT-Формат: FLAC
Битрейт аудио: lossless
Тип рипа: image+.cue
Наличие сканов в содержимом раздачи: да-

Трэклист

01 - - Under Attack
02 - - Generation Nevermore
03 - - Dethroned
04 - - Getting Used to the Evil
05 - - Pathogenic
06 - - Elegant Pigs
07 - - Second to None
08 - - Stand Up for What You Deliver
09 - - Conductor of the Void
10 - - Stigmatized
11 - - Black Metal (feat. Alex Camargo) (Bonus Track)
12 - - Thrash Attack (Bonus Track)
13 - - Black Metal (Classic Version) (Bonus Track)
-

Лог создания рипа

Exact Audio Copy V1.1 from 23. June 2015EAC extraction logfile from 19. May 2016, 17:48Destruction / Under Attack (Japan)Used drive : ATAPI iHAS122 W Adapter: 2 ID: 0Read mode : Secure
Utilize accurate stream : Yes
Defeat audio cache : Yes
Make use of C2 pointers : NoRead offset correction : 48
Overread into Lead-In and Lead-Out : No
Fill up missing offset samples with silence : Yes
Delete leading and trailing silent blocks : No
Null samples used in CRC calculations : Yes
Used interface : Installed external ASPI interfaceUsed output format : User Defined Encoder
Selected bitrate : 1024 kBit/s
Quality : High
Add ID3 tag : No
Command line compressor : C:\Program Files\FLAC\flac.exe
Additional command line options : -V -8 -T "Date=%year%" -T "Genre=%genre%" -T"COMMENT=Ripped by Ilijan" -8 -V %source%TOC of the extracted CD Track | Start | Length | Start sector | End sector
---------------------------------------------------------
1 | 0:00.00 | 6:13.60 | 0 | 28034
2 | 6:13.60 | 4:04.15 | 28035 | 46349
3 | 10:18.00 | 4:50.07 | 46350 | 68106
4 | 15:08.07 | 6:08.53 | 68107 | 95759
5 | 21:16.60 | 4:27.67 | 95760 | 115851
6 | 25:44.52 | 3:40.18 | 115852 | 132369
7 | 29:24.70 | 5:11.23 | 132370 | 155717
8 | 34:36.18 | 4:20.20 | 155718 | 175237
9 | 38:56.38 | 4:33.27 | 175238 | 195739
10 | 43:29.65 | 4:12.53 | 195740 | 214692
11 | 47:42.43 | 3:14.28 | 214693 | 229270
12 | 50:56.71 | 2:58.47 | 229271 | 242667
13 | 53:55.43 | 3:15.32 | 242668 | 257324Range status and errorsSelected range Filename D:\ilко\Destruction - Under Attack (Japan).wav Peak level 96.7 %
Extraction speed 4.1 X
Range quality 100.0 %
Test CRC 6C712579
Copy CRC 6C712579
Copy OKNo errors occurredAccurateRip summaryTrack 1 not present in database
Track 2 not present in database
Track 3 not present in database
Track 4 not present in database
Track 5 not present in database
Track 6 not present in database
Track 7 not present in database
Track 8 not present in database
Track 9 not present in database
Track 10 not present in database
Track 11 not present in database
Track 12 not present in database
Track 13 not present in databaseNone of the tracks are present in the AccurateRip databaseEnd of status report---- CUETools DB Plugin V2.1.6[CTDB TOCID: IZnY4SmKEagiXA98ccj10Z2Hu3o-] found
Submit result: IZnY4SmKEagiXA98ccj10Z2Hu3o- has been confirmed
Track | CTDB Status
1 | (2/2) Accurately ripped
2 | (2/2) Accurately ripped
3 | (2/2) Accurately ripped
4 | (2/2) Accurately ripped
5 | (2/2) Accurately ripped
6 | (2/2) Accurately ripped
7 | (2/2) Accurately ripped
8 | (2/2) Accurately ripped
9 | (2/2) Accurately ripped
10 | (2/2) Accurately ripped
11 | (2/2) Accurately ripped
12 | (2/2) Accurately ripped
13 | (2/2) Accurately ripped==== Log checksum 16545233100290E759DCB237BB5D5BE73883B272C78205FB3503D0706DDB71AC ====
-

Индексная карта (non-compilant .cue)

REM GENRE Thrash Metal
REM DATE 2016
REM DISCID B70D670D
REM COMMENT 13 May, 2016 Japan
PERFORMER "Destruction"
TITLE "Under Attack (Japan)"
FILE "Destruction - Under Attack (Japan).flac" WAVE
TRACK 01 AUDIO
TITLE "Under Attack"
INDEX 01 00:00:00
TRACK 02 AUDIO
TITLE "Generation Nevermore"
INDEX 01 06:13:60
TRACK 03 AUDIO
TITLE "Dethroned"
INDEX 01 10:18:00
TRACK 04 AUDIO
TITLE "Getting Used to the Evil"
INDEX 01 15:08:07
TRACK 05 AUDIO
TITLE "Pathogenic"
INDEX 01 21:16:60
TRACK 06 AUDIO
TITLE "Elegant Pigs"
INDEX 01 25:44:52
TRACK 07 AUDIO
TITLE "Second to None"
INDEX 01 29:24:70
TRACK 08 AUDIO
TITLE "Stand Up for What You Deliver"
INDEX 01 34:36:18
TRACK 09 AUDIO
TITLE "Conductor of the Void"
INDEX 01 38:56:38
TRACK 10 AUDIO
TITLE "Stigmatized"
INDEX 01 43:29:65
TRACK 11 AUDIO
TITLE "Black Metal (feat. Alex Camargo) (Bonus Track)"
INDEX 01 47:42:43
TRACK 12 AUDIO
TITLE "Thrash Attack (Bonus Track)"
INDEX 01 50:56:71
TRACK 13 AUDIO
TITLE "Black Metal (Classic Version) (Bonus Track)"
INDEX 01 53:55:43
-

Скриншот спектра частот

--Работаю не за Спасибо , а за ИДЕЮ.-

YouTube

Яндекс.Метрика
Рейтинг@Mail.ru