[ Сегодня на трекере фрилич! Идет свободное скачивание без начисления Download ]

(Rock) [MB] [MC] [16/44.1] Кино (Виктор Цой) - Магнитная дискография (13 релизов) - 1982-1990, ALAC (tracks+.cue), lossless

 

Создавать темы 24-Май-2016 23:43

Кино (Виктор Цой) / Магнитная дискография- Жанр: Rock
Носитель: MB (катушка), MC (кассета)
Страна-производитель диска: СССР (не издавалось)
Год издания: 1982-1990
Аудио кодек: ALAC (*.m4a)
Тип рипа: tracks+.cue
Программа-конвертер: CueTools (Reference ALAC Encoder)
Битрейт аудио: lossless
Продолжительность: Альбомов: 13, Песен: 157 ^ 9 ч 26 мин
Наличие сканов в содержимом раздачи: нет
Тексты: вшиты
____________________________________
Подборка содержит все альбомы и демо записи, имевшие хождение на аналоговых носителях на рубеже 1980-х-90-х годов. Материал оцифрован со множества разных магнитных носителей в разных условиях; многие альбомы собраны из двух-трёх разных источников. Поздние альбомы и "45" звучат или соизмеримо с морозовскими дисками, или даже лучше.
Автором оригинальной раздачи поправлены скорость (почти на всех альбомах она теперь верная) и стереобаза, почищены от наводок высокие частоты.

1982 - 45 (demo)

  Время   Треклист
01 1:36 Ситар играл
02 3:57 Когда-то ты был битником
03 4:31 Мои друзья
04 3:14 На кухне
05 4:09 Время есть, денег нет
06 3:05 Алюминиевые огурцы
07 3:58 Солнечные дни
08 3:31 Просто хочешь ты знать
09 2:48 Восьмиклассница
10 3:46 Бездельник II
11 1:47 Дерево
12 3:17 Асфальт
13 2:45 Бездельник I
14 2:07 Электричка

Продолжительность: 00:44:29

Содержание индексной карты (.CUE)

PERFORMER "Кино"
TITLE "45 (demo)"
REM DATE 1982
REM DISCNUMBER 1
REM TOTALDISCS 1
REM GENRE "Rock"
FILE "01. Ситар играл.m4a" WAVE
TRACK 01 AUDIO
TITLE "Ситар играл"
PERFORMER "Кино"
INDEX 01 00:00:00
TRACK 02 AUDIO
TITLE "Когда-то ты был битником"
PERFORMER "Кино"
INDEX 00 01:33:48
FILE "02. Когда-то ты был битником.m4a" WAVE
INDEX 01 00:00:00
TRACK 03 AUDIO
TITLE "Мои друзья"
PERFORMER "Кино"
INDEX 00 03:54:71
FILE "03. Мои друзья.m4a" WAVE
INDEX 01 00:00:00
TRACK 04 AUDIO
TITLE "На кухне"
PERFORMER "Кино"
INDEX 00 04:28:52
FILE "04. На кухне.m4a" WAVE
INDEX 01 00:00:00
TRACK 05 AUDIO
TITLE "Время есть, а денег нет"
PERFORMER "Кино"
INDEX 00 03:12:00
FILE "05. Время есть, а денег нет.m4a" WAVE
INDEX 01 00:00:00
TRACK 06 AUDIO
TITLE "Алюминиевые огурцы"
PERFORMER "Кино"
INDEX 00 04:07:01
FILE "06. Алюминиевые огурцы.m4a" WAVE
INDEX 01 00:00:00
TRACK 07 AUDIO
TITLE "Солнечные дни"
PERFORMER "Кино"
INDEX 00 03:02:41
FILE "07. Солнечные дни.m4a" WAVE
INDEX 01 00:00:00
TRACK 08 AUDIO
TITLE "Просто хочешь ты знать"
PERFORMER "Кино"
INDEX 00 03:55:38
FILE "08. Просто хочешь ты знать.m4a" WAVE
INDEX 01 00:00:00
TRACK 09 AUDIO
TITLE "Восьмиклассница"
PERFORMER "Кино"
INDEX 00 03:29:01
FILE "09. Восьмиклассница.m4a" WAVE
INDEX 01 00:00:00
TRACK 10 AUDIO
TITLE "Бездельник II"
PERFORMER "Кино"
INDEX 00 02:45:71
FILE "10. Бездельник II.m4a" WAVE
INDEX 01 00:00:00
TRACK 11 AUDIO
TITLE "Дерево"
PERFORMER "Кино"
INDEX 00 03:44:07
FILE "11. Дерево.m4a" WAVE
INDEX 01 00:00:00
TRACK 12 AUDIO
TITLE "Асфальт"
PERFORMER "Кино"
INDEX 00 01:45:25
FILE "12. Асфальт.m4a" WAVE
INDEX 01 00:00:00
TRACK 13 AUDIO
TITLE "Бездельник I"
PERFORMER "Кино"
INDEX 00 03:14:40
FILE "13. Бездельник I.m4a" WAVE
INDEX 01 00:00:00
TRACK 14 AUDIO
TITLE "Электричка"
PERFORMER "Кино"
INDEX 00 02:42:68
FILE "14. Электричка.m4a" WAVE
INDEX 01 00:00:00

1982 - 45

  Время   Треклист
01 4:10 Время есть, а денег нет
02 3:29 Просто хочешь ты знать
03 3:03 Алюминиевые огурцы
04 3:24 Солнечные дни
05 3:14 Бездельник I
06 3:18 Бездельник II
07 2:39 Электричка
08 2:51 Восьмиклассница
09 4:30 Мои друзья
10 1:35 Ситар играл
11 1:49 Дерево
12 3:51 Когда-то ты был битником
13 3:25 Асфальт
14 2:52 На кухне

Продолжительность: 00:44:09

Содержание индексной карты (.CUE)

PERFORMER "Кино"
TITLE "45"
REM DATE 1982
REM DISCNUMBER 1
REM TOTALDISCS 1
REM GENRE "Rock"
FILE "01. Время есть, а денег нет.m4a" WAVE
TRACK 01 AUDIO
TITLE "Время есть, а денег нет"
PERFORMER "Кино"
INDEX 01 00:00:00
TRACK 02 AUDIO
TITLE "Просто хочешь ты знать"
PERFORMER "Кино"
INDEX 00 04:07:42
FILE "02. Просто хочешь ты знать.m4a" WAVE
INDEX 01 00:00:00
TRACK 03 AUDIO
TITLE "Алюминиевые огурцы"
PERFORMER "Кино"
INDEX 00 03:26:41
FILE "03. Алюминиевые огурцы.m4a" WAVE
INDEX 01 00:00:00
TRACK 04 AUDIO
TITLE "Солнечные дни"
PERFORMER "Кино"
INDEX 00 03:01:02
FILE "04. Солнечные дни.m4a" WAVE
INDEX 01 00:00:00
TRACK 05 AUDIO
TITLE "Бездельник I"
PERFORMER "Кино"
INDEX 00 03:21:72
FILE "05. Бездельник I.m4a" WAVE
INDEX 01 00:00:00
TRACK 06 AUDIO
TITLE "Бездельник II"
PERFORMER "Кино"
INDEX 00 03:12:26
FILE "06. Бездельник II.m4a" WAVE
INDEX 01 00:00:00
TRACK 07 AUDIO
TITLE "Электричка"
PERFORMER "Кино"
INDEX 00 03:16:29
FILE "07. Электричка.m4a" WAVE
INDEX 01 00:00:00
TRACK 08 AUDIO
TITLE "Восьмиклассница"
PERFORMER "Кино"
INDEX 00 02:36:67
FILE "08. Восьмиклассница.m4a" WAVE
INDEX 01 00:00:00
TRACK 09 AUDIO
TITLE "Мои друзья"
PERFORMER "Кино"
INDEX 00 02:49:11
FILE "09. Мои друзья.m4a" WAVE
INDEX 01 00:00:00
TRACK 10 AUDIO
TITLE "Ситар играл"
PERFORMER "Кино"
INDEX 00 04:27:59
FILE "10. Ситар играл.m4a" WAVE
INDEX 01 00:00:00
TRACK 11 AUDIO
TITLE "Дерево"
PERFORMER "Кино"
INDEX 00 01:32:48
FILE "11. Дерево.m4a" WAVE
INDEX 01 00:00:00
TRACK 12 AUDIO
TITLE "Когда-то ты был битником"
PERFORMER "Кино"
INDEX 00 01:47:35
FILE "12. Когда-то ты был битником.m4a" WAVE
INDEX 01 00:00:00
TRACK 13 AUDIO
TITLE "Асфальт"
PERFORMER "Кино"
INDEX 00 03:48:48
FILE "13. Асфальт.m4a" WAVE
INDEX 01 00:00:00
TRACK 14 AUDIO
TITLE "На кухне"
PERFORMER "Кино"
INDEX 00 03:22:41
FILE "14. На кухне.m4a" WAVE
INDEX 01 00:00:00

1983 - Последний герой из МДТ

  Время   Треклист
01 2:50 Последний герой
02 2:24 Весна
03 3:52 Тот, кто уходит прочь
04 1:38 Лето
05 1:00 В поисках сюжета
06 1:14 Возле дороги (live)
07 2:32 Дождь (live)
08 2:10 Папа, твой сын никем не хочет быть (live)
09 3:46 Посвящение Марку Болану (live)
10 2:19 Осень (песня для Б.Г.) (live)
11 2:45 Ночной грабитель холодильников (live)
12 2:52 Моё настроение (live)
13 3:48 Тот, кто уходит прочь (дубль)
14 2:42 Последний герой (дубль)

Продолжительность: 00:35:51

Содержание индексной карты (.CUE)

PERFORMER "Кино"
TITLE "Последний герой из МДТ"
REM DATE 1983
REM DISCNUMBER 1
REM TOTALDISCS 1
REM GENRE "Rock"
FILE "01. Последний герой.m4a" WAVE
TRACK 01 AUDIO
TITLE "Последний герой"
PERFORMER "Кино"
INDEX 01 00:00:00
TRACK 02 AUDIO
TITLE "Весна"
PERFORMER "Кино"
INDEX 00 02:48:05
FILE "02. Весна.m4a" WAVE
INDEX 01 00:00:00
TRACK 03 AUDIO
TITLE "Тот, кто уходит прочь"
PERFORMER "Кино"
INDEX 00 02:21:40
FILE "03. Тот, кто уходит прочь.m4a" WAVE
INDEX 01 00:00:00
TRACK 04 AUDIO
TITLE "Лето"
PERFORMER "Кино"
INDEX 00 03:49:69
FILE "04. Лето.m4a" WAVE
INDEX 01 00:00:00
TRACK 05 AUDIO
TITLE "В поисках сюжета"
PERFORMER "Кино"
INDEX 00 01:35:54
FILE "05. В поисках сюжета.m4a" WAVE
INDEX 01 00:00:00
TRACK 06 AUDIO
TITLE "Дорога (live)"
PERFORMER "Кино"
INDEX 00 00:55:11
FILE "06. Дорога (live).m4a" WAVE
INDEX 01 00:00:00
TRACK 07 AUDIO
TITLE "Дождь (live)"
PERFORMER "Кино"
INDEX 00 01:11:57
FILE "07. Дождь (live).m4a" WAVE
INDEX 01 00:00:00
TRACK 08 AUDIO
TITLE "Папа, твой сын никем не хочет быть (live)"
PERFORMER "Кино"
INDEX 00 02:29:67
FILE "08. Папа, твой сын никем не хочет быть (live).m4a" WAVE
INDEX 01 00:00:00
TRACK 09 AUDIO
TITLE "Посвящение Марку Болану (live)"
PERFORMER "Кино"
INDEX 00 02:08:09
FILE "09. Посвящение Марку Болану (live).m4a" WAVE
INDEX 01 00:00:00
TRACK 10 AUDIO
TITLE "Осень (песня для Б.Г.) (live)"
PERFORMER "Кино"
INDEX 00 03:43:46
FILE "10. Осень (песня для Б.Г.) (live).m4a" WAVE
INDEX 01 00:00:00
TRACK 11 AUDIO
TITLE "Ночной грабитель холодильников (live)"
PERFORMER "Кино"
INDEX 00 02:17:26
FILE "11. Ночной грабитель холодильников (live).m4a" WAVE
INDEX 01 00:00:00
TRACK 12 AUDIO
TITLE "Моё настроение (live)"
PERFORMER "Кино"
INDEX 00 02:43:19
FILE "12. Моё настроение (live).m4a" WAVE
INDEX 01 00:00:00
TRACK 13 AUDIO
TITLE "Тот, кто уходит прочь (дубль)"
PERFORMER "Кино"
INDEX 00 02:46:55
FILE "13. Тот, кто уходит прочь (дубль).m4a" WAVE
INDEX 01 00:00:00
TRACK 14 AUDIO
TITLE "Последний герой (дубль)"
PERFORMER "Кино"
INDEX 00 03:45:69
FILE "14. Последний герой (дубль).m4a" WAVE
INDEX 01 00:00:00

1983 - 46

  Время   Треклист
01 3:00 Троллейбус
02 2:17 Камчатка
03 5:38 Транквилизатор
04 2:06 Я иду по улице
05 3:27 Дождь для нас
06 1:53 Пора
07 2:51 Каждую ночь
08 2:07 Без десяти
09 2:46 Музыка волн
10 4:06 Саша
11 2:30 Хочу быть с тобой
12 4:00 Генерал
13 2:03 Стань птицей
14 2:46 Сельва
15 1:17 Я хочу быть кочегаром

Продолжительность: 00:42:47

Содержание индексной карты (.CUE)

REM GENRE "Rock"
REM DATE 1983
REM DISCID C10A070F
PERFORMER "Кино"
TITLE "46"
REM DISCNUMBER 1
REM TOTALDISCS 1
FILE "01. Троллейбус.m4a" WAVE
TRACK 01 AUDIO
TITLE "Троллейбус"
PERFORMER "Кино"
FLAGS DCP
INDEX 01 00:00:00
TRACK 02 AUDIO
TITLE "Камчатка"
PERFORMER "Кино"
FLAGS DCP
INDEX 00 02:58:01
FILE "02. Камчатка.m4a" WAVE
INDEX 01 00:00:00
TRACK 03 AUDIO
TITLE "Транквилизатор"
PERFORMER "Кино"
FLAGS DCP
INDEX 00 02:15:20
FILE "03. Транквилизатор.m4a" WAVE
INDEX 01 00:00:00
TRACK 04 AUDIO
TITLE "Я иду по улице"
PERFORMER "Кино"
FLAGS DCP
INDEX 00 05:35:47
FILE "04. Я иду по улице.m4a" WAVE
INDEX 01 00:00:00
TRACK 05 AUDIO
TITLE "Дождь для нас"
PERFORMER "Кино"
FLAGS DCP
INDEX 00 02:04:04
FILE "05. Дождь для нас.m4a" WAVE
INDEX 01 00:00:00
TRACK 06 AUDIO
TITLE "Пора"
PERFORMER "Кино"
FLAGS DCP
INDEX 00 03:24:55
FILE "06. Пора.m4a" WAVE
INDEX 01 00:00:00
TRACK 07 AUDIO
TITLE "Каждую ночь"
PERFORMER "Кино"
FLAGS DCP
INDEX 00 01:51:00
FILE "07. Каждую ночь.m4a" WAVE
INDEX 01 00:00:00
TRACK 08 AUDIO
TITLE "Без десяти"
PERFORMER "Кино"
FLAGS DCP
INDEX 00 02:49:18
FILE "08. Без десяти.m4a" WAVE
INDEX 01 00:00:00
TRACK 09 AUDIO
TITLE "Музыка волн"
PERFORMER "Кино"
FLAGS DCP
INDEX 00 02:05:03
FILE "09. Музыка волн.m4a" WAVE
INDEX 01 00:00:00
TRACK 10 AUDIO
TITLE "Саша"
PERFORMER "Кино"
FLAGS DCP
INDEX 00 02:44:31
FILE "10. Саша.m4a" WAVE
INDEX 01 00:00:00
TRACK 11 AUDIO
TITLE "Хочу быть с тобой"
PERFORMER "Кино"
FLAGS DCP
INDEX 00 04:03:72
FILE "11. Хочу быть с тобой.m4a" WAVE
INDEX 01 00:00:00
TRACK 12 AUDIO
TITLE "Генерал"
PERFORMER "Кино"
FLAGS DCP
INDEX 00 02:27:46
FILE "12. Генерал.m4a" WAVE
INDEX 01 00:00:00
TRACK 13 AUDIO
TITLE "Стань птицей"
PERFORMER "Кино"
FLAGS DCP
INDEX 00 03:58:18
FILE "13. Стань птицей.m4a" WAVE
INDEX 01 00:00:00
TRACK 14 AUDIO
TITLE "Сельва"
PERFORMER "Кино"
FLAGS DCP
INDEX 00 02:00:52
FILE "14. Сельва.m4a" WAVE
INDEX 01 00:00:00
TRACK 15 AUDIO
TITLE "Я хочу быть кочегаром"
PERFORMER "Кино"
FLAGS DCP
INDEX 00 02:43:64
FILE "15. Я хочу быть кочегаром.m4a" WAVE
INDEX 01 00:00:00

1984 - Начальник Камчатки

  Время   Треклист
01 2:54 Последний герой
02 3:00 Каждую ночь
03 5:37 Транквилизатор
04 2:11 Сюжет
05 3:57 Гость
06 2:52 Камчатка
07 2:16 Ария Мистера Икс
08 2:23 Троллейбус
09 1:52 Растопите снег
10 3:20 Дождь для нас
11 2:26 Хочу быть с тобой
12 3:26 Генерал - возвращено в альбом
13 3:25 Прогулка романтика

Продолжительность: 00:39:40

Содержание индексной карты (.CUE)

REM GENRE "Rock"
REM DATE 1984
REM DISCID BC0A060E
PERFORMER "Кино"
TITLE "Начальник Камчатки"
REM DISCNUMBER 1
REM TOTALDISCS 1
FILE "01. Последний герой.m4a" WAVE
TRACK 01 AUDIO
TITLE "Последний герой"
PERFORMER "Кино"
FLAGS DCP
INDEX 01 00:00:00
FILE "02. Каждую ночь.m4a" WAVE
TRACK 02 AUDIO
TITLE "Каждую ночь"
PERFORMER "Кино"
FLAGS DCP
INDEX 01 00:00:00
FILE "03. Транквилизатор.m4a" WAVE
TRACK 03 AUDIO
TITLE "Транквилизатор"
PERFORMER "Кино"
FLAGS DCP
INDEX 01 00:00:00
FILE "04. Сюжет.m4a" WAVE
TRACK 04 AUDIO
TITLE "Сюжет"
PERFORMER "Кино"
FLAGS DCP
INDEX 01 00:00:00
FILE "05. Гость.m4a" WAVE
TRACK 05 AUDIO
TITLE "Гость"
PERFORMER "Кино"
FLAGS DCP
INDEX 01 00:00:00
FILE "06. Камчатка.m4a" WAVE
TRACK 06 AUDIO
TITLE "Камчатка"
PERFORMER "Кино"
FLAGS DCP
INDEX 01 00:00:00
FILE "07. Ария мистера Икс.m4a" WAVE
TRACK 07 AUDIO
TITLE "Ария мистера Икс"
PERFORMER "Кино"
FLAGS DCP
INDEX 01 00:00:00
FILE "08. Троллейбус.m4a" WAVE
TRACK 08 AUDIO
TITLE "Троллейбус"
PERFORMER "Кино"
FLAGS DCP
INDEX 01 00:00:00
FILE "09. Растопите снег.m4a" WAVE
TRACK 09 AUDIO
TITLE "Растопите снег"
PERFORMER "Кино"
FLAGS DCP
INDEX 01 00:00:00
FILE "10. Дождь для нас.m4a" WAVE
TRACK 10 AUDIO
TITLE "Дождь для нас"
PERFORMER "Кино"
FLAGS DCP
INDEX 01 00:00:00
FILE "11. Хочу быть с тобой.m4a" WAVE
TRACK 11 AUDIO
TITLE "Хочу быть с тобой"
PERFORMER "Кино"
FLAGS DCP
INDEX 01 00:00:00
FILE "12. Генерал.m4a" WAVE
TRACK 12 AUDIO
TITLE "Генерал"
PERFORMER "Кино"
FLAGS DCP
INDEX 01 00:00:00
FILE "13. Прогулка романтика.m4a" WAVE
TRACK 13 AUDIO
TITLE "Прогулка романтика"
PERFORMER "Кино"
FLAGS DCP
INDEX 01 00:00:00

1985 - Это не любовь...

  Время   Треклист
01 3:36 Это не любовь
02 2:06 Весна
03 4:52 Уходи
04 3:51 Город
05 3:43 Проснись, это любовь
06 4:03 Рядом со мной
07 2:30 Безъядерная зона
08 3:26 Саша
09 5:52 Верь мне
10 2:02 Дети проходных дворов
11 4:19 Музыка волн

Продолжительность: 00:40:19

Содержание индексной карты (.CUE)

REM GENRE "Rock"
REM DATE 1985
REM DISCID 8A09730B
PERFORMER "Кино"
TITLE "Это не любовь..."
REM DISCNUMBER 1
REM TOTALDISCS 1
FILE "01. Это не любовь.m4a" WAVE
TRACK 01 AUDIO
TITLE "Это не любовь"
PERFORMER "Кино"
FLAGS DCP
INDEX 01 00:00:00
TRACK 02 AUDIO
TITLE "Весна"
PERFORMER "Кино"
FLAGS DCP
INDEX 00 03:33:50
FILE "02. Весна.m4a" WAVE
INDEX 01 00:00:00
TRACK 03 AUDIO
TITLE "Уходи"
PERFORMER "Кино"
FLAGS DCP
INDEX 00 02:04:20
FILE "03. Уходи.m4a" WAVE
INDEX 01 00:00:00
TRACK 04 AUDIO
TITLE "Город"
PERFORMER "Кино"
FLAGS DCP
INDEX 00 04:49:59
FILE "04. Город.m4a" WAVE
INDEX 01 00:00:00
TRACK 05 AUDIO
TITLE "Проснись, это любовь"
PERFORMER "Кино"
FLAGS DCP
INDEX 00 03:49:07
FILE "05. Проснись, это любовь.m4a" WAVE
INDEX 01 00:00:00
TRACK 06 AUDIO
TITLE "Рядом со мной"
PERFORMER "Кино"
FLAGS DCP
INDEX 00 03:40:59
FILE "06. Рядом со мной.m4a" WAVE
INDEX 01 00:00:00
TRACK 07 AUDIO
TITLE "Безъядерная зона"
PERFORMER "Кино"
FLAGS DCP
INDEX 00 04:01:09
FILE "07. Безъядерная зона.m4a" WAVE
INDEX 01 00:00:00
TRACK 08 AUDIO
TITLE "Саша"
PERFORMER "Кино"
FLAGS DCP
INDEX 00 02:28:10
FILE "08. Саша.m4a" WAVE
INDEX 01 00:00:00
TRACK 09 AUDIO
TITLE "Верь мне"
PERFORMER "Кино"
FLAGS DCP
INDEX 00 03:24:10
FILE "09. Верь мне.m4a" WAVE
INDEX 01 00:00:00
TRACK 10 AUDIO
TITLE "Дети проходных дворов"
PERFORMER "Кино"
FLAGS DCP
INDEX 00 05:49:40
FILE "10. Дети проходных дворов.m4a" WAVE
INDEX 01 00:00:00
TRACK 11 AUDIO
TITLE "Музыка волн"
PERFORMER "Кино"
FLAGS DCP
INDEX 00 02:00:12
FILE "11. Музыка волн.m4a" WAVE
INDEX 01 00:00:00

1986 - Ночь

  Время   Треклист
01 3:09 Видели ночь
02 4:55 Фильмы
03 3:30 Твой номер
04 4:33 Танец
05 5:29 Ночь
06 2:15 Последний герой
07 3:34 Жизнь в стёклах
08 2:44 Мама-анархия
09 3:37 Звёзды останутся здесь
10 5:01 Игра
11 4:07 Мы хотим танцевать

Продолжительность: 00:42:52

Содержание индексной карты (.CUE)

PERFORMER "Кино"
TITLE "Ночь"
REM DATE 1986
REM DISCNUMBER 1
REM TOTALDISCS 1
REM GENRE "Rock"
FILE "01. Видели ночь.m4a" WAVE
TRACK 01 AUDIO
TITLE "Видели ночь"
PERFORMER "Кино"
INDEX 01 00:00:00
TRACK 02 AUDIO
TITLE "Фильмы"
PERFORMER "Кино"
INDEX 00 03:06:49
FILE "02. Фильмы.m4a" WAVE
INDEX 01 00:00:00
TRACK 03 AUDIO
TITLE "Твой номер"
PERFORMER "Кино"
INDEX 00 04:52:46
FILE "03. Твой номер.m4a" WAVE
INDEX 01 00:00:00
TRACK 04 AUDIO
TITLE "Танец"
PERFORMER "Кино"
INDEX 00 03:27:66
FILE "04. Танец.m4a" WAVE
INDEX 01 00:00:00
TRACK 05 AUDIO
TITLE "Ночь"
PERFORMER "Кино"
INDEX 00 04:31:09
FILE "05. Ночь.m4a" WAVE
INDEX 01 00:00:00
TRACK 06 AUDIO
TITLE "Последний герой"
PERFORMER "Кино"
INDEX 00 05:26:60
FILE "06. Последний герой.m4a" WAVE
INDEX 01 00:00:00
TRACK 07 AUDIO
TITLE "Жизнь в стёклах"
PERFORMER "Кино"
INDEX 00 02:13:04
FILE "07. Жизнь в стёклах.m4a" WAVE
INDEX 01 00:00:00
TRACK 08 AUDIO
TITLE "Мама-анархия"
PERFORMER "Кино"
INDEX 00 03:31:48
FILE "08. Мама-анархия.m4a" WAVE
INDEX 01 00:00:00
TRACK 09 AUDIO
TITLE "Звёзды останутся здесь"
PERFORMER "Кино"
INDEX 00 02:42:26
FILE "09. Звёзды останутся здесь.m4a" WAVE
INDEX 01 00:00:00
TRACK 10 AUDIO
TITLE "Игра"
PERFORMER "Кино"
INDEX 00 03:34:53
FILE "10. Игра.m4a" WAVE
INDEX 01 00:00:00
TRACK 11 AUDIO
TITLE "Мы хотим танцевать"
PERFORMER "Кино"
INDEX 00 04:59:06
FILE "11. Мы хотим танцевать.m4a" WAVE
INDEX 01 00:00:00

1986 - Любовь - это не шутка

  Время   Треклист
01 5:25 Поробуй спеть вместе со мной
02 4:02 Дальше действовать будем мы
03 3:40 Закрой за мной дверь
04 4:02 Прохожий
05 6:13 Любовь - это не шутка
06 4:25 Разреши мне остаться с тобой
07 0:21 Стишок (из песни "Принцесса" группы "Кофе")
08 3:38 Братская любовь
09 3:53 Подросток
10 0:17 Почему "Аквариум" играет?
11 3:09 Ты обвела меня вокруг пальца
12 2:48 Спокойная ночь (demo)

Продолжительность: 00:51:54

Содержание индексной карты (.CUE)

PERFORMER "Кино"
TITLE "Любовь - это не шутка"
REM DATE 1986
REM DISCNUMBER 1
REM TOTALDISCS 1
REM GENRE "Rock"
FILE "01. Попробуй спеть вместе со мной.m4a" WAVE
TRACK 01 AUDIO
TITLE "Попробуй спеть вместе со мной"
PERFORMER "Кино"
INDEX 01 00:00:00
TRACK 02 AUDIO
TITLE "Дальше действовать будем мы"
PERFORMER "Кино"
INDEX 00 05:22:53
FILE "02. Дальше действовать будем мы.m4a" WAVE
INDEX 01 00:00:00
TRACK 03 AUDIO
TITLE "Прохожий"
PERFORMER "Кино"
INDEX 00 03:59:71
FILE "03. Прохожий.m4a" WAVE
INDEX 01 00:00:00
TRACK 04 AUDIO
TITLE "Закрой за мной дверь, я ухожу"
PERFORMER "Кино"
INDEX 00 03:37:38
FILE "04. Закрой за мной дверь, я ухожу.m4a" WAVE
INDEX 01 00:00:00
TRACK 05 AUDIO
TITLE "Любовь - это не шутка"
PERFORMER "Кино"
INDEX 00 04:00:36
FILE "05. Любовь - это не шутка.m4a" WAVE
INDEX 01 00:00:00
TRACK 06 AUDIO
TITLE "Разреши мне остаться с тобой"
PERFORMER "Кино"
INDEX 00 06:10:69
FILE "06. Разреши мне остаться с тобой.m4a" WAVE
INDEX 01 00:00:00
TRACK 07 AUDIO
TITLE "Стишок (из песни 'Принцесса' группы 'Кофе')"
PERFORMER "Кино"
INDEX 00 04:23:30
FILE "07. Стишок (из песни 'Принцесса' группы 'Кофе').m4a" WAVE
INDEX 01 00:00:00
TRACK 08 AUDIO
TITLE "Братская любовь"
PERFORMER "Кино"
INDEX 00 00:18:74
FILE "08. Братская любовь.m4a" WAVE
INDEX 01 00:00:00
TRACK 09 AUDIO
TITLE "Подросток"
PERFORMER "Кино"
INDEX 00 03:36:24
FILE "09. Подросток.m4a" WAVE
INDEX 01 00:00:00
TRACK 10 AUDIO
TITLE "Почему 'Аквариум' играет?"
PERFORMER "Кино"
INDEX 00 03:51:25
FILE "10. Почему 'Аквариум' играет_.m4a" WAVE
INDEX 01 00:00:00
TRACK 11 AUDIO
TITLE "Ты обвела меня вокруг пальца"
PERFORMER "Кино"
INDEX 00 00:15:14
FILE "11. Ты обвела меня вокруг пальца.m4a" WAVE
INDEX 01 00:00:00
TRACK 12 AUDIO
TITLE "Спокойная ночь (demo)"
PERFORMER "Кино"
INDEX 00 03:07:18
FILE "12. Спокойная ночь (demo).m4a" WAVE
INDEX 01 00:00:00

1988 - Группа крови

  Время   Треклист
01 4:37 Группа крови
02 4:09 Закрой за мной дверь
03 3:56 Война
04 5:56 Спокойная ночь
05 3:59 Мама, мы все сошли с ума
06 4:02 Бошетунмай
07 3:27 В наших глазах
08 4:28 Попробуй спеть вместе со мной
09 3:32 Прохожий
10 3:47 Дальше действовать будем мы
10 4:17 Легенда
11 5:13 Мы ждём перемен (авторский вариант)

Продолжительность: 00:51:22

Содержание индексной карты (.CUE)

PERFORMER "Кино"
TITLE "Группа крови"
REM DATE 1988
REM DISCNUMBER 1
REM TOTALDISCS 1
REM GENRE "Rock"
FILE "01. Группа крови.m4a" WAVE
TRACK 01 AUDIO
TITLE "Группа крови"
PERFORMER "Кино"
INDEX 01 00:00:00
FILE "02. Закрой за мной дверь, я ухожу.m4a" WAVE
TRACK 02 AUDIO
TITLE "Закрой за мной дверь, я ухожу"
PERFORMER "Кино"
INDEX 01 00:00:00
FILE "03. Война.m4a" WAVE
TRACK 03 AUDIO
TITLE "Война"
PERFORMER "Кино"
INDEX 01 00:00:00
FILE "04. Спокойная ночь.m4a" WAVE
TRACK 04 AUDIO
TITLE "Спокойная ночь"
PERFORMER "Кино"
INDEX 01 00:00:00
FILE "05. Мама, мы все сошли с ума.m4a" WAVE
TRACK 05 AUDIO
TITLE "Мама, мы все сошли с ума"
PERFORMER "Кино"
INDEX 01 00:00:00
FILE "06. Бошетунмай.m4a" WAVE
TRACK 06 AUDIO
TITLE "Бошетунмай"
PERFORMER "Кино"
INDEX 01 00:00:00
FILE "07. В наших глазах.m4a" WAVE
TRACK 07 AUDIO
TITLE "В наших глазах"
PERFORMER "Кино"
INDEX 01 00:00:00
FILE "08. Попробуй спеть вместе со мной.m4a" WAVE
TRACK 08 AUDIO
TITLE "Попробуй спеть вместе со мной"
PERFORMER "Кино"
INDEX 01 00:00:00
FILE "09. Прохожий.m4a" WAVE
TRACK 09 AUDIO
TITLE "Прохожий"
PERFORMER "Кино"
INDEX 01 00:00:00
FILE "10. Дальше действовать будем мы.m4a" WAVE
TRACK 10 AUDIO
TITLE "Дальше действовать будем мы"
PERFORMER "Кино"
INDEX 01 00:00:00
FILE "11. Легенда.m4a" WAVE
TRACK 11 AUDIO
TITLE "Легенда"
PERFORMER "Кино"
INDEX 01 00:00:00
TRACK 12 AUDIO
TITLE "Мы ждём перемен (авторский вариант)"
PERFORMER "Кино"
INDEX 00 04:11:46
FILE "12. Мы ждём перемен (авторский вариант).m4a" WAVE
INDEX 01 00:00:00

1989 - Звезда по имени Солнце

  Время   Треклист
01 5:00 Белый день
02 3:04 Звезда по имени Солнце
03 4:01 Невесёлая песня
04 5:47 Сказка
05 3:39 Место для шага вперёд
06 4:25 Пачка сигарет
07 3:27 Стук
08 5:29 Печаль
09 4:39 Апрель
10 3:43 Велосипед

Продолжительность: 00:43:14

Содержание индексной карты (.CUE)

PERFORMER "Кино"
TITLE "Звезда по имени Солнце"
REM DATE 1989
REM DISCNUMBER 1
REM TOTALDISCS 1
REM GENRE "Rock"
FILE "01. Белый день.m4a" WAVE
TRACK 01 AUDIO
TITLE "Белый день"
PERFORMER "Кино"
INDEX 01 00:00:00
TRACK 02 AUDIO
TITLE "Звезда по имени Солнце"
PERFORMER "Кино"
INDEX 00 04:58:00
FILE "02. Звезда по имени Солнце.m4a" WAVE
INDEX 01 00:00:00
TRACK 03 AUDIO
TITLE "Невесёлая песня"
PERFORMER "Кино"
INDEX 00 03:01:50
FILE "03. Невесёлая песня.m4a" WAVE
INDEX 01 00:00:00
TRACK 04 AUDIO
TITLE "Сказка"
PERFORMER "Кино"
INDEX 00 03:59:23
FILE "04. Сказка.m4a" WAVE
INDEX 01 00:00:00
TRACK 05 AUDIO
TITLE "Место для шага вперёд"
PERFORMER "Кино"
INDEX 00 05:44:55
FILE "05. Место для шага вперёд.m4a" WAVE
INDEX 01 00:00:00
TRACK 06 AUDIO
TITLE "Пачка сигарет"
PERFORMER "Кино"
INDEX 00 03:37:12
FILE "06. Пачка сигарет.m4a" WAVE
INDEX 01 00:00:00
TRACK 07 AUDIO
TITLE "Стук"
PERFORMER "Кино"
INDEX 00 04:23:24
FILE "07. Стук.m4a" WAVE
INDEX 01 00:00:00
TRACK 08 AUDIO
TITLE "Печаль"
PERFORMER "Кино"
INDEX 00 03:24:74
FILE "08. Печаль.m4a" WAVE
INDEX 01 00:00:00
TRACK 09 AUDIO
TITLE "Апрель"
PERFORMER "Кино"
INDEX 00 05:27:17
FILE "09. Апрель.m4a" WAVE
INDEX 01 00:00:00
TRACK 10 AUDIO
TITLE "Велосипед"
PERFORMER "Кино"
INDEX 00 04:33:63
FILE "10. Велосипед.m4a" WAVE
INDEX 01 00:00:00

1989 - Последний герой

  Время   Треклист
01 4:25 Хочу перемен
02 4:47 электричка
03 4:02 Война
04 2:54 Троллейбус
05 5:09 Печаль
06 3:05 Последний герой
07 3:56 Группа крови
08 3:46 Мама, мы все сошли с ума
09 3:43 В наших глазах
10 6:31 Спокойная ночь
11 4:45 Blood Type

Продолжительность: 00:47:28

Содержание индексной карты (.CUE)

PERFORMER "Кино"
TITLE "Последний герой"
REM DATE 1989
REM DISCNUMBER 1
REM TOTALDISCS 1
REM GENRE "Rock"
FILE "01. Мы ждём перемен.m4a" WAVE
TRACK 01 AUDIO
TITLE "Мы ждём перемен"
PERFORMER "Кино"
INDEX 01 00:00:00
TRACK 02 AUDIO
TITLE "Электричка"
PERFORMER "Кино"
INDEX 00 04:50:01
FILE "02. Электричка.m4a" WAVE
INDEX 01 00:00:00
TRACK 03 AUDIO
TITLE "Война"
PERFORMER "Кино"
INDEX 00 04:45:22
FILE "03. Война.m4a" WAVE
INDEX 01 00:00:00
TRACK 04 AUDIO
TITLE "Троллейбус"
PERFORMER "Кино"
INDEX 00 03:59:42
FILE "04. Троллейбус.m4a" WAVE
INDEX 01 00:00:00
TRACK 05 AUDIO
TITLE "Печаль"
PERFORMER "Кино"
INDEX 00 02:51:55
FILE "05. Печаль.m4a" WAVE
INDEX 01 00:00:00
TRACK 06 AUDIO
TITLE "Последний герой"
PERFORMER "Кино"
INDEX 00 05:06:57
FILE "06. Последний герой.m4a" WAVE
INDEX 01 00:00:00
TRACK 07 AUDIO
TITLE "Группа крови"
PERFORMER "Кино"
INDEX 00 03:03:31
FILE "07. Группа крови.m4a" WAVE
INDEX 01 00:00:00
TRACK 08 AUDIO
TITLE "Мама, мы все сошли с ума"
PERFORMER "Кино"
INDEX 00 03:54:12
FILE "08. Мама, мы все сошли с ума.m4a" WAVE
INDEX 01 00:00:00
TRACK 09 AUDIO
TITLE "В наших глазах"
PERFORMER "Кино"
INDEX 00 03:43:49
FILE "09. В наших глазах.m4a" WAVE
INDEX 01 00:00:00
TRACK 10 AUDIO
TITLE "Спокойная ночь"
PERFORMER "Кино"
INDEX 00 03:40:48
FILE "10. Спокойная ночь.m4a" WAVE
INDEX 01 00:00:00
TRACK 11 AUDIO
TITLE "Blood Type"
PERFORMER "Кино"
INDEX 00 06:25:39
FILE "11. Blood Type.m4a" WAVE
INDEX 01 00:00:00

1990 - Черный альбом

  Время   Треклист
01 5:53 Скоро кончится лето
02 5:48 Красно-жёлтые дни
03 4:46 Нам с тобой
04 4:26 Звезда
05 6:36 Кукушка
06 4:21 Когда твоя девушка больна
07 5:14 Муравейник
08 4:58 Следи за собой
09 5:18 Сосны на морском берегу
10 0:32 Завтра война

Продолжительность: 00:47:52

Содержание индексной карты (.CUE)

PERFORMER "Кино"
TITLE "Черный альбом"
REM DATE 1990
REM DISCNUMBER 1
REM TOTALDISCS 1
REM GENRE "Rock"
FILE "01. Скоро кончится лето.m4a" WAVE
TRACK 01 AUDIO
TITLE "Скоро кончится лето"
PERFORMER "Кино"
INDEX 01 00:00:00
TRACK 02 AUDIO
TITLE "Красно-жёлтые дни"
PERFORMER "Кино"
INDEX 00 05:50:41
FILE "02. Красно-жёлтые дни.m4a" WAVE
INDEX 01 00:00:00
TRACK 03 AUDIO
TITLE "Нам с тобой"
PERFORMER "Кино"
INDEX 00 05:46:22
FILE "03. Нам с тобой.m4a" WAVE
INDEX 01 00:00:00
TRACK 04 AUDIO
TITLE "Звезда"
PERFORMER "Кино"
INDEX 00 04:43:64
FILE "04. Звезда.m4a" WAVE
INDEX 01 00:00:00
TRACK 05 AUDIO
TITLE "Кукушка"
PERFORMER "Кино"
INDEX 00 04:24:19
FILE "05. Кукушка.m4a" WAVE
INDEX 01 00:00:00
TRACK 06 AUDIO
TITLE "Когда твоя девушка больна"
PERFORMER "Кино"
INDEX 00 06:33:43
FILE "06. Когда твоя девушка больна.m4a" WAVE
INDEX 01 00:00:00
TRACK 07 AUDIO
TITLE "Муравейник"
PERFORMER "Кино"
INDEX 00 04:18:52
FILE "07. Муравейник.m4a" WAVE
INDEX 01 00:00:00
TRACK 08 AUDIO
TITLE "Следи за собой"
PERFORMER "Кино"
INDEX 00 05:12:23
FILE "08. Следи за собой.m4a" WAVE
INDEX 01 00:00:00
TRACK 09 AUDIO
TITLE "Сосны на морском берегу"
PERFORMER "Кино"
INDEX 00 04:56:28
FILE "09. Сосны на морском берегу.m4a" WAVE
INDEX 01 00:00:00
TRACK 10 AUDIO
TITLE "Завтра война"
PERFORMER "Кино"
INDEX 00 05:15:69
FILE "10. Завтра война.m4a" WAVE
INDEX 01 00:00:00

1990 - Белый альбом

  Время   Треклист
01 5:54 Скоро кончится лето
02 6:43 Красно-жёлтые дни
03 5:08 Нам с тобой
04 4:29 Звезда
05 4:38 Кукушка
06 3:46 Когда твоя девушка больна
07 3:58 Муравейник
08 5:28 Следи за собой
09 4:28 Сосны на морском берегу
10 0:31 Завтра война

Продолжительность: 00:45:02

Содержание индексной карты (.CUE)

PERFORMER "Кино"
TITLE "Белый альбом"
REM DATE 1990
REM DISCNUMBER 1
REM TOTALDISCS 1
REM GENRE "Rock"
FILE "01. Скоро кончится лето.m4a" WAVE
TRACK 01 AUDIO
TITLE "Скоро кончится лето"
PERFORMER "Кино"
INDEX 01 00:00:00
TRACK 02 AUDIO
TITLE "Красно-жёлтые дни"
PERFORMER "Кино"
INDEX 00 05:52:13
FILE "02. Красно-жёлтые дни.m4a" WAVE
INDEX 01 00:00:00
TRACK 03 AUDIO
TITLE "Нам с тобой"
PERFORMER "Кино"
INDEX 00 06:40:43
FILE "03. Нам с тобой.m4a" WAVE
INDEX 01 00:00:00
TRACK 04 AUDIO
TITLE "Звезда"
PERFORMER "Кино"
INDEX 00 05:05:61
FILE "04. Звезда.m4a" WAVE
INDEX 01 00:00:00
TRACK 05 AUDIO
TITLE "Кукушка"
PERFORMER "Кино"
INDEX 00 04:27:09
FILE "05. Кукушка.m4a" WAVE
INDEX 01 00:00:00
TRACK 06 AUDIO
TITLE "Когда твоя девушка больна"
PERFORMER "Кино"
INDEX 00 04:36:02
FILE "06. Когда твоя девушка больна.m4a" WAVE
INDEX 01 00:00:00
TRACK 07 AUDIO
TITLE "Муравейник"
PERFORMER "Кино"
INDEX 00 03:43:56
FILE "07. Муравейник.m4a" WAVE
INDEX 01 00:00:00
TRACK 08 AUDIO
TITLE "Следи за собой"
PERFORMER "Кино"
INDEX 00 03:55:44
FILE "08. Следи за собой.m4a" WAVE
INDEX 01 00:00:00
TRACK 09 AUDIO
TITLE "Сосны на морском берегу"
PERFORMER "Кино"
INDEX 00 05:26:04
FILE "09. Сосны на морском берегу.m4a" WAVE
INDEX 01 00:00:00
TRACK 10 AUDIO
TITLE "Завтра война"
PERFORMER "Кино"
INDEX 00 04:26:03
FILE "10. Завтра война.m4a" WAVE
INDEX 01 00:00:00
Яндекс.Метрика
Рейтинг@Mail.ru