National Geographic: Денежное Хранилище США / American's Money Vault (2012,Документальный HDTVRip) от R.G.RealMT | P1

 

Создавать темы 30-Дек-2013 16:29

Год выпуска: 2012
Страна: США, National Geographic
Жанр: Документальный
Продолжительность: 00:45:00
Перевод: Профессиональный (одноголосый) студия АРК ТВ
Описание:
Перед Вами 20 миллионов долларов наличными. Вот здесь 300 тысяч по одному доллару.
30 миллионов в стодолларовых банкнотах. Будь то наличность, золото или биты, все мы знаем, что Миром правят деньги! А стоимость денег зависит от веры. Веры в бесперебойную работу неких внутренних механизмов. Джейк Ворд и канал National Geographic впервые покажут Вам закулисье системы. Они проведут Вас по зданиям, где нельзя снимать, прямо в крупнейшее в мире хранилище, того о чем Вы мечтаете. Это то, что Вам нужно и ради чего Вы готовы с ног сбиться. Это - Деньги!
Качество: HDTVRip
Формат:AVI
Видео кодек: XviD
Аудио кодек: AC-3
Видео: 16:9, 2000 Кбит/сек, 720x400, 25,000 кадров/сек
Аудио: AC-3, 2 канала, 192 Кбит/сек, 48,0 КГц

MediaInfo

Общее
Полное имя : D:Денежное Хранилище США 2012 HDTVRip.[R.G.RealMT].avi
Формат : AVI
Формат/Информация : Audio Video Interleave
Размер файла : 708 Мбайт
Продолжительность : 44 м.
Общий поток : 2201 Кбит/сек
Программа кодирования : VirtualDubMod 1.5.10.3 | www.virtualdub-fr.org || (build 2550/release)
Библиотека кодирования : VirtualDubMod build 2550/release
Видео
Идентификатор : 0
Формат : MPEG-4 Visual
Профиль формата : Advanced [email protected]
Параметр BVOP формата : 2
Параметр QPel формата : Нет
Параметр GMC формата : Без точки перехода
Параметр матрицы формата : Default (H.263)
Режим смешивания : Сжатый битовый поток
Идентификатор кодека : XVID
Идентификатор кодека/Подсказка : XviD
Продолжительность : 44 м.
Битрейт : 2000 Кбит/сек
Ширина : 720 пикселей
Высота : 400 пикселей
Соотношение сторон : 16:9
Частота кадров : 25,000 кадров/сек
Цветовое пространство : YUV
Субдискретизация насыщенности : 4:2:0
Битовая глубина : 8 бит
Тип развёртки : Прогрессивная
Метод сжатия : С потерями
Бит/(Пиксели*Кадры) : 0.278
Размер потока : 643 Мбайт (91%)
Библиотека кодирования : XviD 1.2.1 (UTC 2008-12-04)
Аудио
Идентификатор : 1
Формат : AC-3
Формат/Информация : Audio Coding 3
Расширение режима : CM (complete main)
Параметр Endianness формата : Big
Идентификатор кодека : 2000
Продолжительность : 44 м.
Вид битрейта : Постоянный
Битрейт : 192 Кбит/сек
Каналы : 2 канала
Расположение каналов : Front: L R
Частота : 48,0 КГц
Битовая глубина : 16 бит
Метод сжатия : С потерями
Размер потока : 61,8 Мбайт (9%)
Выравнивание : Разделение по промежуткам
Продолжительность промежутка : 40 мс. (1,00 видеокадр)
Время предзагрузки промежутка : 500 мс.

Скриншоты

Яндекс.Метрика
Рейтинг@Mail.ru