[ Сегодня на трекере фрилич! Идет свободное скачивание без начисления Download ]

(Gothic Metal) The Vision Bleak - The Kindred Of The Sunset-(EP) - 2016 [FLAC, image+.cue, lossless]

 

Создавать темы 12-Май-2016 05:30

-The Vision Bleak / The Kindred Of The Sunset-(EP)-- Год издания: 2016
Страна: Mellrichstadt, Bavaria, Germany
Жанр: Gothic Metal
Продолжительность: 00:18:23-Лейбл издания: Prophecy Productions
Тип альбома: Master
Страна-выпуска диска: Germany
Номер по каталогу: PRO 195
Источник (релизер): RMT-Формат: FLAC
Битрейт аудио: lossless
Тип рипа: image+.cue
Наличие сканов в содержимом раздачи: да-

Трэклист

01. The Kindred Of The Sunset (04:56)
02. The Whine Of The Cemetery Hound (06:39)
03. The Sleeping Beauty (Tiamat Cover) (04:13)
04. Purification Afterglow (02:36)
-

Лог создания рипа

Exact Audio Copy V1.1 from 23. June 2015EAC extraction logfile from 3. May 2016, 13:44The Vision Bleak / The Kindred Of The SunsetUsed drive : HP DVD Writer 1170d Adapter: 1 ID: 1Read mode : Secure
Utilize accurate stream : Yes
Defeat audio cache : Yes
Make use of C2 pointers : NoRead offset correction : 6
Overread into Lead-In and Lead-Out : No
Fill up missing offset samples with silence : Yes
Delete leading and trailing silent blocks : No
Null samples used in CRC calculations : Yes
Used interface : Native Win32 interface for Win NT & 2000Used output format : User Defined Encoder
Selected bitrate : 1024 kBit/s
Quality : Low
Add ID3 tag : No
Command line compressor : C:\Program Files (x86)\Exact Audio Copy\FLAC\FLAC.EXE
Additional command line options : -V -8 -T "Date=%year%" -T "Genre=%genre%" -T"COMMENT=Ripped by Ungern666" -8 -V %source%TOC of the extracted CD Track | Start | Length | Start sector | End sector
---------------------------------------------------------
1 | 0:00.00 | 4:55.73 | 0 | 22197
2 | 4:55.73 | 6:38.69 | 22198 | 52116
3 | 11:34.67 | 4:12.52 | 52117 | 71068
4 | 15:47.44 | 2:36.15 | 71069 | 82783Range status and errorsSelected range Filename C:\EAC\Ungern666\The Vision Bleak - The Kindred Of The Sunset.wav Peak level 98.4 %
Extraction speed 4.5 X
Range quality 100.0 %
Test CRC 460DDC9B
Copy CRC 460DDC9B
Copy OKNo errors occurredAccurateRip summaryTrack 1 not present in database
Track 2 not present in database
Track 3 not present in database
Track 4 not present in databaseNone of the tracks are present in the AccurateRip databaseEnd of status report---- CUETools DB Plugin V2.1.6[CTDB TOCID: tqWGbXOct9xd6dw8dLRPbWW3Ewo-] disk not present in database
Submit result: tqWGbXOct9xd6dw8dLRPbWW3Ewo- has been uploaded==== Log checksum 444E64E8D5310A62E0AE6EC0B3FBDD44C560652F240EF34414F3AAB2470A4B80 ====
-

Индексная карта (non-compilant .cue)

REM GENRE "Gothic Metal"
REM DATE 2016
REM DISCID 3F044F04
REM COMMENT "ExactAudioCopy v1.1"
PERFORMER "The Vision Bleak"
TITLE "The Kindred Of The Sunset"
FILE "The Vision Bleak - The Kindred Of The Sunset.flac" WAVE
TRACK 01 AUDIO
TITLE "The Kindred Of The Sunset"
PERFORMER "The Vision Bleak"
INDEX 01 00:00:00
TRACK 02 AUDIO
TITLE "The Whine Of The Cemetery Hound"
PERFORMER "The Vision Bleak"
INDEX 00 04:53:56
INDEX 01 04:55:73
TRACK 03 AUDIO
TITLE "The Sleeping Beauty"
PERFORMER "The Vision Bleak"
INDEX 00 11:30:70
INDEX 01 11:34:67
TRACK 04 AUDIO
TITLE "Purification Afterglow"
PERFORMER "The Vision Bleak"
INDEX 00 15:44:72
INDEX 01 15:47:44
-

Скриншот спектра частот

--Работаю не за Спасибо , а за ИДЕЮ.-
Яндекс.Метрика
Рейтинг@Mail.ru