(Heavy Metal) Blaze Bayley - Infinite Entanglement - 2016 [FLAC, image+.cue, lossless]

 

Создавать темы 12-Май-2016 05:26

-Blaze Bayley - Infinite Entanglement-- Год издания: 2016
Страна: United Kingdom: England
Жанр: Heavy Metal
Продолжительность: 00:47:28-Лейбл издания: Blaze Bayley Recordings
Тип альбома: Master
Страна-выпуска диска: Germany
Номер по каталогу: BBRCD011
Источник (релизер): RMT-Формат: FLAC
Битрейт аудио: lossless
Тип рипа: image+.cue
Наличие сканов в содержимом раздачи: да-

Трэклист

01. Infinite Entanglement
02. A Thousand Years
03. Human
04. What Will Come
05. Stars Are Burning
06. Solar Wind
07. The Dreams Of William Black
08. Calling You Home
09. Dark Energy 256
10. Independence
11. A Work Of Anger
12. Untitled / Epilogue
-

Лог создания рипа

Exact Audio Copy V1.1 from 23. June 2015EAC extraction logfile from 5. May 2016, 19:25Blaze Bayley / Infinite EntanglementUsed drive : ATAPI iHAS122 W Adapter: 2 ID: 0Read mode : Secure
Utilize accurate stream : Yes
Defeat audio cache : Yes
Make use of C2 pointers : NoRead offset correction : 48
Overread into Lead-In and Lead-Out : No
Fill up missing offset samples with silence : Yes
Delete leading and trailing silent blocks : No
Null samples used in CRC calculations : Yes
Used interface : Installed external ASPI interfaceUsed output format : User Defined Encoder
Selected bitrate : 1024 kBit/s
Quality : High
Add ID3 tag : No
Command line compressor : C:\Program Files\FLAC\flac.exe
Additional command line options : -V -8 -T "Date=%year%" -T "Genre=%genre%" -T"COMMENT=Ripped by Ilijan" -8 -V %source%TOC of the extracted CD Track | Start | Length | Start sector | End sector
---------------------------------------------------------
1 | 0:00.00 | 4:26.73 | 0 | 20022
2 | 4:26.73 | 3:26.68 | 20023 | 35540
3 | 7:53.66 | 3:31.52 | 35541 | 51417
4 | 11:25.43 | 4:48.31 | 51418 | 73048
5 | 16:13.74 | 3:48.70 | 73049 | 90218
6 | 20:02.69 | 4:01.57 | 90219 | 108350
7 | 24:04.51 | 2:20.07 | 108351 | 118857
8 | 26:24.58 | 5:21.37 | 118858 | 142969
9 | 31:46.20 | 4:01.22 | 142970 | 161066
10 | 35:47.42 | 5:11.39 | 161067 | 184430
11 | 40:59.06 | 5:33.04 | 184431 | 209409
12 | 46:32.10 | 0:56.00 | 209410 | 213609Range status and errorsSelected range Filename D:\ilко\Blaze Bayley - Infinite Entanglement.wav Peak level 100.0 %
Extraction speed 3.8 X
Range quality 100.0 %
Test CRC D62BE7DE
Copy CRC D62BE7DE
Copy OKNo errors occurredAccurateRip summaryTrack 1 accurately ripped (confidence 3) [0394712F] (AR v2)
Track 2 accurately ripped (confidence 3) [0D578699] (AR v2)
Track 3 accurately ripped (confidence 3) [A9520CEF] (AR v2)
Track 4 accurately ripped (confidence 3) [72CEAC01] (AR v2)
Track 5 accurately ripped (confidence 3) [73113BBD] (AR v2)
Track 6 accurately ripped (confidence 3) [1FD59E7C] (AR v2)
Track 7 accurately ripped (confidence 3) [07C888C0] (AR v2)
Track 8 accurately ripped (confidence 3) [1D921B7A] (AR v2)
Track 9 accurately ripped (confidence 3) [DA58A810] (AR v2)
Track 10 accurately ripped (confidence 3) [319496FB] (AR v2)
Track 11 accurately ripped (confidence 3) [11C2691A] (AR v2)
Track 12 accurately ripped (confidence 3) [2A41BA88] (AR v2)All tracks accurately rippedEnd of status report---- CUETools DB Plugin V2.1.6[CTDB TOCID: 8b7I2luJEsnHp4NFodt2dfArqNc-] found
Submit result: 8b7I2luJEsnHp4NFodt2dfArqNc- has been confirmed
Track | CTDB Status
1 | (21/21) Accurately ripped
2 | (21/21) Accurately ripped
3 | (21/21) Accurately ripped
4 | (21/21) Accurately ripped
5 | (21/21) Accurately ripped
6 | (21/21) Accurately ripped
7 | (21/21) Accurately ripped
8 | (21/21) Accurately ripped
9 | (21/21) Accurately ripped
10 | (21/21) Accurately ripped
11 | (21/21) Accurately ripped
12 | (21/21) Accurately ripped==== Log checksum 1A1BA7819B54F89CEB4F356DF38DF8482F859B79C1D9281D95F56D69FA911A64 ====
-

Индексная карта (non-compilant .cue)

REM GENRE Heavy Metal
REM DATE 2016
REM COMMENT 2016, UK, First Press, DR8
PERFORMER "Blaze Bayley"
TITLE "Infinite Entanglement"
FILE "Blaze Bayley - Infinite Entanglement.flac" WAVE
TRACK 01 AUDIO
TITLE "Infinite Entanglement"
INDEX 01 00:00:00
TRACK 02 AUDIO
TITLE "A Thousand Years"
INDEX 01 04:26:73
TRACK 03 AUDIO
TITLE "Human"
INDEX 01 07:53:66
TRACK 04 AUDIO
TITLE "What Will Come"
INDEX 01 11:25:43
TRACK 05 AUDIO
TITLE "Stars Are Burning"
INDEX 01 16:13:74
TRACK 06 AUDIO
TITLE "Solar Wind"
INDEX 01 20:02:69
TRACK 07 AUDIO
TITLE "The Dreams of William Black"
INDEX 01 24:04:51
TRACK 08 AUDIO
TITLE "Calling You Home"
INDEX 01 26:24:58
TRACK 09 AUDIO
TITLE "Dark Energy 256"
INDEX 01 31:46:20
TRACK 10 AUDIO
TITLE "Independence"
INDEX 01 35:47:42
TRACK 11 AUDIO
TITLE "A Work of Anger"
INDEX 01 40:59:06
TRACK 12 AUDIO
TITLE "Untitled / Epilogue"
INDEX 01 46:32:10
-

Скриншот спектра частот

--Работаю не за Спасибо , а за ИДЕЮ.--
Яндекс.Метрика
Рейтинг@Mail.ru