(Heavy Metal) Алексей Чернышёв - Пресвятая Русь - 2015 [FLAC, image +.cue, lossless]

 

Создавать темы 02-Апр-2016 06:58

-Алексей Чернышёв - Пресвятая Русь--
Год издания: 2015
Страна: Russia
Жанр: Heavy Metal
Продолжительность: 00:33:22-Лейбл издания: Metalist Records
Страна-выпуска диска: Russia
Номер по каталогу: MR 137-15-Формат: FLAC
Битрейт аудио: Lossless
Тип рипа: image +.cue
Наличие сканов в содержимом раздачи: да
-

Трэклист


01. Пресвятая Русь (04:22)
02. Потребитель (демо) (03:08)
03. The Golden Eagle (04:22)
04. Пресвятая Русь (инструментальная версия) (04:14)
05. Хозяин зла (демо) (05:34)
06. Армагеддон (демо) (04:21)
07. Смотритель маяка (демо) (03:37)
08. Мой друг (демо) (03:47)
-

Лог создания рипа

Exact Audio Copy V1.0 beta 3 from 29. August 2011
Отчёт EAC об извлечении, выполненном 12. сентября 2015, 0:15
Алексей Чернышёв / Пресвятая Русь
Дисковод: ASUS    DRW-24F1ST   a   Adapter: 2  ID: 0
Режим чтения                 : Достоверность
Использование точного потока : Да
Отключение кэша аудио        : Да
Использование указателей C2  : Нет
Коррекция смещения при чтении                     : 6
Способность читать области Lead-in и Lead-out     : Нет
Заполнение пропущенных сэмплов тишиной            : Да
Удаление блоков с тишиной в начале и конце        : Нет
При вычислениях CRC использовались нулевые сэмплы : Да
Интерфейс                                         : Встроенный Win32-интерфейс для Win NT/2000
Выходной формат : Внутренние WAV-операции
Формат сэмплов  : 44.100 Гц; 16 бит; стерео
TOC извлечённого CD
     Трек |   Старт  | Длительность | Начальный сектор | Конечный сектор
    ---------------------------------------------------------------------
       1  |  0:00.00 |    4:21.58   |           0      |      19632
       2  |  4:21.58 |    3:08.00   |       19633      |      33732
       3  |  7:29.58 |    4:21.44   |       33733      |      53351
       4  | 11:51.27 |    4:13.22   |       53352      |      72348
       5  | 16:04.49 |    5:33.56   |       72349      |      97379
       6  | 21:38.30 |    4:20.24   |       97380      |     116903
       7  | 25:58.54 |    3:36.46   |      116904      |     133149
       8  | 29:35.25 |    3:46.02   |      133150      |     150101
Характеристики диапазона извлечения и сообщения об ошибках
Выбранный диапазон
     Имя файла X:\Temps\Алексей Чернышёв - Пресвятая Русь.wav
     Пиковый уровень 100.0 %
     Скорость извлечения 2.8 X
     Качество диапазона 100.0 %
     CRC теста 632236CB
     CRC копии 632236CB
     Копирование... OK
Ошибок не произошло
AccurateRip: сводка
Трек  1  отсутствует в базе данных
Трек  2  отсутствует в базе данных
Трек  3  отсутствует в базе данных
Трек  4  отсутствует в базе данных
Трек  5  отсутствует в базе данных
Трек  6  отсутствует в базе данных
Трек  7  отсутствует в базе данных
Трек  8  отсутствует в базе данных
Ни одного трека нет в базе AccurateRip
Конец отчёта

Индексная карта (non-compilant .cue)

REM GENRE "Heavy Metal"
REM DATE 2015
REM DISCID 5D07D108
REM COMMENT "ExactAudioCopy v1.0b3"
PERFORMER "Алексей Чернышёв"
TITLE "Пресвятая Русь"
FILE "Алексей Чернышёв - Пресвятая Русь.flac" WAVE
  TRACK 01 AUDIO
    TITLE "Пресвятая Русь"
    PERFORMER "Алексей Чернышёв"
    INDEX 01 00:00:00
  TRACK 02 AUDIO
    TITLE "Потребитель (демо)"
    PERFORMER "Алексей Чернышёв"
    INDEX 01 04:21:58
  TRACK 03 AUDIO
    TITLE "The Golden Eagle"
    PERFORMER "Алексей Чернышёв"
    INDEX 01 07:29:58
  TRACK 04 AUDIO
    TITLE "Пресвятая Русь (инструментальная версия)"
    PERFORMER "Алексей Чернышёв"
    INDEX 01 11:51:27
  TRACK 05 AUDIO
    TITLE "Хозяин зла (демо)"
    PERFORMER "Алексей Чернышёв"
    INDEX 01 16:04:49
  TRACK 06 AUDIO
    TITLE "Армагеддон (демо)"
    PERFORMER "Алексей Чернышёв"
    INDEX 01 21:38:30
  TRACK 07 AUDIO
    TITLE "Смотритель маяка (демо)"
    PERFORMER "Алексей Чернышёв"
    INDEX 01 25:58:54
  TRACK 08 AUDIO
    TITLE "Мой друг (демо)"
    PERFORMER "Алексей Чернышёв"
    INDEX 01 29:35:25
-- -Оформление: sergej644-
Яндекс.Метрика
Рейтинг@Mail.ru