Последняя ночь Шахерезады ( Тахир Сабиров)[1987,Детский, Семейный, Сказка, DVDRip]

 

Создавать темы 26-Дек-2013 17:46

-Последняя ночь Шахерезады (1987) DVDRip- Год выпуска: 1987
Жанр: Детский, Семейный, Сказка
Описание фильма:
Любите ли вы сказки? Да не какие - нибудь, а восточные, волшебные. Если да, то советуем вам посмотреть "Последнюю ночь Шахерезады". Вы уже догадались, что речь идет о знаменитых арабских сказках "Тысяча и одна ночь"? На этот раз вы станете свидетелями дальнейших приключений башмачника Маруфа, увидите и удивительные приключения джинов, появляющихся из бутылки, и мудрых калифов, и коварных визирей, и кровожадных разбойников, и волшебные ковры - самолеты. А какие там красавицы, какая любовь! Да, эти сказки действительно можно смотреть тысяча и одну ночь, и они всегда будут прекрасны.
Режиссер: Тахир Сабиров
Актеры: Тахир Сабиров, Елена Тонунц, Лариса Белогурова, Шариф Кабулов, Улугбек Музаффаров, Тамара Яндиева, Бурхон Раджабов, Хатам Нуров, Саддин Бакдунис.
Продолжительность: 01:23:45
Качество видео: DVDRip

Видеокодек: Xvid
Битрейт видео: ~1103 kbps
Размер кадра: 560 x 432
Аудиокодек: MP3, 2 ch
Битрейт аудио: 128 kbps

MediaInfo

Последняя ночь Шахерезады.avi
Format : AVI
Format/Info : Audio Video Interleave
File size : 743 MiB
Duration : 1h 23mn
Overall bit rate : 1 241 Kbps
Writing application : VirtualDubMod 1.5.10.2 (build 2540/release)
Writing library : VirtualDubMod build 2540/release
Video
ID : 0
Format : MPEG-4 Visual
Format profile : Advanced [email protected]
Format settings, BVOP : 2
Format settings, QPel : No
Format settings, GMC : No warppoints
Format settings, Matrix : Default (H.263)
Codec ID : XVID
Codec ID/Hint : XviD
Duration : 1h 23mn
Bit rate : 1 103 Kbps
Width : 560 pixels
Height : 432 pixels
Display aspect ratio : 1.296
Frame rate : 25.000 fps
Color space : YUV
Chroma subsampling : 4:2:0
Bit depth : 8 bits
Scan type : Progressive
Compression mode : Lossy
Bits/(Pixel*Frame) : 0.182
Stream size : 661 MiB (89%)
Writing library : XviD 63
Audio
ID : 1
Format : MPEG Audio
Format version : Version 1
Format profile : Layer 3
Mode : Joint stereo
Mode extension : MS Stereo
Codec ID : 55
Codec ID/Hint : MP3
Duration : 1h 23mn
Bit rate mode : Constant
Bit rate : 128 Kbps
Channel count : 2 channels
Sampling rate : 48.0 KHz
Compression mode : Lossy
Stream size : 76.7 MiB (10%)
Alignment : Aligned on interleaves
Interleave, duration : 40 ms (1.00 video frame)
Interleave, preload duration : 504 ms

Скриншоты

Яндекс.Метрика
Рейтинг@Mail.ru