[ Сегодня на трекере фрилич! Идет свободное скачивание без начисления Download ]

Черная месса / Black Mass (2015,драма, криминал, биография) WEB-DLRip | КПК | iTunes

 

Создавать темы 07-Фев-2016 13:30

--• Черная месса / Black Mass •-- Страна: США, Великобритания
Производство: Cross Creek Pictures, Free State Pictures, Grisbi Productions, Le, Head Gear Films, Infinitum Nihil Production, Metrol Technology, RatPac-Dune Entertainment, Ridgerock Entertainment Group, Vendian Entertainment
Год выпуска: 2015
Жанр: драма, криминал, биография
Режиссёр: Скотт Купер- В ролях: Джонни Депп, Джоэл Эдгертон, Бенедикт Камбербэтч, Кевин Бэйкон, Джесси Племонс, Питер Сарсгаард, Кори Столл, Дакота Джонсон, Рори Кокрейн, Дэвид Харбор, Адам Скотт, Джулианна Николсон, У. Эрл Браун, Билл Кэмп, Джуно Темпл, Марк Махони, Брэд Картер, Скотт Андерсон, Лонни Фармер, Мэри Клуг- Перевод: Профессиональный (полное дублирование) [iTunes]- Описание: Картина расскажет об Уайти Балджере, знаменитом бостонском гангстере, который 16 лет находился в бегах и был арестован в июне 2011 года в Санта-Монике. Балджер, которому уже за 80, обвинялся в рэкете, был замешан в 19 убийствах и в то же время работал информатором на ФБР. Чтобы не попасть за решетку, он исчез в 1995 году и 16 лет успешно скрывался от правосудия.- - Качество: WEB-DLRip
Продолжительность: 02:02:33
Формат: MP4
Видео кодек: H.264
Аудио кодек: AAC-LC
Свойства видео: 640x266 (2:40:1), 23.976 fps, 500 kbps (0.122 bit/pixel)
Свойства аудио: 48.0 KHz, 2 ch, 128 kbps

MediaInfo

General
Complete name : Black Mass.2015.WEB-DLRip.mp4
Format : MPEG-4
Format profile : Base Media
Codec ID : isom (isom/avc1)
File size : 557 MiB
Duration : 2h 2mn
Overall bit rate mode : Variable
Overall bit rate : 636 Kbps
Movie name : Black Mass 2015 WEB-DLRip
ContentType : Short Film
Encoded date : UTC 2016-01-16 10:17:07
Tagged date : UTC 2016-01-16 10:18:02
Writing application : MkvToMp4 version: 0.224 (x64)
Video
ID : 1
Format : AVC
Format/Info : Advanced Video Codec
Format profile : [email protected]
Format settings, CABAC : Yes
Format settings, ReFrames : 9 frames
Codec ID : avc1
Codec ID/Info : Advanced Video Coding
Duration : 2h 2mn
Bit rate : 500 Kbps
Maximum bit rate : 1 656 Kbps
Width : 640 pixels
Height : 266 pixels
Display aspect ratio : 2.40:1
Frame rate mode : Constant
Frame rate : 23.976 (24000/1001) fps
Color space : YUV
Chroma subsampling : 4:2:0
Bit depth : 8 bits
Scan type : Progressive
Bits/(Pixel*Frame) : 0.122
Stream size : 438 MiB (79%)
Title : 264_GPAC0.5.2_DEV_rev248_g39d5978_master
Writing library : x264 core 146 r2538 121396c
Encoding settings : cabac=1 / ref=9 / deblock=1:-3:-3 / analyse=0x3:0x113 / me=umh / subme=11 / psy=1 / psy_rd=1.00:0.00 / mixed_ref=1 / me_range=32 / chroma_me=1 / trellis=2 / 8x8dct=1 / cqm=0 / deadzone=21,11 / fast_pskip=0 / chroma_qp_offset=-2 / threads=6 / lookahead_threads=1 / sliced_threads=0 / nr=0 / decimate=0 / interlaced=0 / bluray_compat=0 / constrained_intra=0 / bframes=9 / b_pyramid=2 / b_adapt=2 / b_bias=0 / direct=3 / weightb=1 / open_gop=0 / weightp=2 / keyint=240 / keyint_min=23 / scenecut=40 / intra_refresh=0 / rc=2pass / mbtree=0 / bitrate=500 / ratetol=1.0 / qcomp=0.60 / qpmin=0 / qpmax=69 / qpstep=4 / cplxblur=20.0 / qblur=0.5 / ip_ratio=1.40 / pb_ratio=1.30 / aq=1:1.00
Language : English
Encoded date : UTC 2016-01-16 10:17:07
Tagged date : UTC 2016-01-16 10:17:32
Audio
ID : 2
Format : AAC
Format/Info : Advanced Audio Codec
Format profile : LC
Codec ID : 40
Duration : 2h 2mn
Bit rate mode : Variable
Bit rate : 128 Kbps
Maximum bit rate : 135 Kbps
Channel(s) : 2 channels
Channel positions : Front: L R
Sampling rate : 48.0 KHz
Frame rate : 46.875 fps (1024 spf)
Compression mode : Lossy
Stream size : 112 MiB (20%)
Language : Russian
Default : Yes
Alternate group : 1
Encoded date : UTC 2016-01-16 10:17:23
Tagged date : UTC 2016-01-16 10:17:32

Скриншоты

Яндекс.Метрика
Рейтинг@Mail.ru