Viasat History: Запретная история / Forbidden History [сезон 2 серии 1-6 из 6] (Брюс Бюргесс) [2014 г., Документальный, история, исследования, SATRip]

 

Создавать темы 28-Янв-2016 20:28

-Viasat History: Запретная история / Forbidden History [сезон 2 серии 1-6 из 6]-
Год выпуска:
2014
Страна: Великобритания, Forbidden History Productions LTD
Жанр: Документальный, история, исследования
Продолжительность: 6 x ~ 00:43:28
Перевод: Профессиональный (одноголосый), переведено и озвучено на студии "SDI Media", текст читает Р. Антанович
Режиссер: Брюс Бюргесс
В ролях: Ведущий: Джейми Тикстон-Описание:-Влиятельные лица не любят, когда новые факты и свидетельства ставят под вопрос давно устоявшиеся истины и представления, принятые как данность столетия назад. В течение многих лет множество уникальных историй и фактов были скрыты или преданы забвению. Однако нашлись смельчаки, которые попытались рассказать правду, которая скрывалась от людей веками. Анализируя и изучая факты и различные свидетельства, и проводя свое собственное расследование, Джейми Тикстон попытается ответить на вопрос – Насколько наши знания о некоторых исторических фактах истинны?-Список серий:
01. Утраченные сокровища Петры / The Lost Treasures of Petra
Джейми отправляется в город Петра, который когда-то был столицей Набатейского царства. Там он встречается с иорданским археологом, который проливает свет на историю этого древнейшего города.
02. Истинный Святой Грааль / The Real Holy Graill
Джейми расскажет о четырех чашах, каждая из которых выдается за Святой Грааль, и якобы имеет чудодейственную силу и исцеляет больных.
03. Секреты Иллюминатов / The Secrets of the Illuminati
Джейми исследует тайной общество "Орден Розы и Креста", членам которого были Леонардо Да Винчи, Исаак Ньютон и Кристофер Рен.
04. Оракулы / The Oracles
Дельфийский оракул пользовался в Древней Греции большим почётом и был окутан тайнами. Джейми отправляется в Грецию, чтобы узнать все правду о самом известном оракуле в истории.
05. Совершенно секретно. Нацистские НЛО / Top Secret Nazi UFOsl
Джейми исследует работы немецкого инженера Джорджа Клайна, который первым заявил, что НЛО было изобретено и разработано Третьим рейхом.
06. Гений Николы Теслы / The Genius of Nikola Tesla
В этой серии. Джейми отправляется в Белград, чтобы больше узнать о жизни и работе загадочного сербского ученого, инженера, физика и футуриста — Николы Теслы.
-Качество: SATRip
Формат: AVI
Видео кодек: XviD
Аудио кодек: AC3
Видео: 720x400 25fps ~1800 Kbps
Аудио: AC3 2ch, 48kHz, 192 kbps-

MediaInfo:

Format : AVI
Format/Info : Audio Video Interleave
File size : 629 MiB
Duration : 43mn 59s
Overall bit rate : 1 998 Kbps
Writing application : TMPGEnc Video Mastering Works 5 Version. 5.0.6.38
Writing library : TMPGEnc Video Mastering Works 5 Version. 5.0.6.38
Video
ID : 0
Format : MPEG-4 Visual
Format profile : Advanced [email protected]
Format settings, BVOP : 2
Format settings, QPel : No
Format settings, GMC : No warppoints
Format settings, Matrix : Default (H.263)
Muxing mode : Packed bitstream
Codec ID : XVID
Codec ID/Hint : XviD
Duration : 43mn 59s
Bit rate : 1 798 Kbps
Width : 704 pixels
Height : 400 pixels
Display aspect ratio : 16:9
Frame rate : 25.000 fps
Color space : YUV
Chroma subsampling : 4:2:0
Bit depth : 8 bits
Scan type : Progressive
Compression mode : Lossy
Bits/(Pixel*Frame) : 0.255
Stream size : 566 MiB (90%)
Writing library : XviD 73
Audio
ID : 1
Format : AC-3
Format/Info : Audio Coding 3
Mode extension : CM (complete main)
Format settings, Endianness : Big
Codec ID : 2000
Duration : 43mn 59s
Bit rate mode : Constant
Bit rate : 192 Kbps
Channel(s) : 2 channels
Channel positions : Front: L R
Sampling rate : 48.0 KHz
Bit depth : 16 bits
Compression mode : Lossy
Stream size : 60.4 MiB (10%)
Alignment : Aligned on interleaves
Interleave, duration : 240 ms (6.00 video frames)
Interleave, preload duration : 224 ms
-Скриншоты--Время раздачи: 24/7 (круглосуточно)-
Яндекс.Метрика
Рейтинг@Mail.ru