[ Сегодня на трекере фрилич! Идет свободное скачивание без начисления Download ]

Linkin Park - New Divide [2009 г.] (Alternative) [WEB-Rip, 1080p]

 

Создавать темы 05-Янв-2016 22:43

-Linkin Park - New Divide-- Год выпуска: 2009 г.
Страна: USA
Жанр: Alternative
Продолжительность: 00:04:26-Качество видео: WEB-Rip
Контейнер: MP4
Стандарт разрешения: 1080p
Видео кодек: AVC
Аудио кодек: AAC
Видео: 1920x1080, 3066 Кбит/сек, 23,976 кадра/сек, 0.062 bit/pic
Аудио: 126 Кбит/сек, 2 канала, 44,1 КГц
-Описание: Remix-

Трэклист

01. New Divide

Media Info

Общее
Полное имя : D:\Torrent files\Linkin Park - New Divide 2009.mp4
Формат : MPEG-4
Профиль формата : Base Media
Идентификатор кодека : isom
Размер файла : 101 Мбайт
Продолжительность : 4 м. 26 с.
Общий поток : 3196 Кбит/сек
Программа кодирования : Lavf55.12.100
Видео
Идентификатор : 1
Формат : AVC
Формат/Информация : Advanced Video Codec
Профиль формата : [email protected]
Параметр CABAC формата : Да
Параметр ReFrames формата : 3 кадра
Идентификатор кодека : avc1
Идентификатор кодека/Информация : Advanced Video Coding
Продолжительность : 4 м. 26 с.
Битрейт : 3066 Кбит/сек
Ширина : 1920 пикселей
Высота : 1080 пикселей
Соотношение сторон : 16:9
Режим частоты кадров : Постоянный
Частота кадров : 23,976 кадра/сек
Цветовое пространство : YUV
Субдискретизация насыщенности : 4:2:0
Битовая глубина : 8 бит
Тип развёртки : Прогрессивная
Бит/(Пиксели*Кадры) : 0.062
Размер потока : 97,3 Мбайт (96%)
Аудио
Идентификатор : 2
Формат : AAC
Формат/Информация : Advanced Audio Codec
Профиль формата : LC
Идентификатор кодека : 40
Продолжительность : 4 м. 26 с.
Вид битрейта : Постоянный
Битрейт : 126 Кбит/сек
Каналы : 2 канала
Расположение каналов : Front: L R
Частота : 44,1 КГц
Метод сжатия : С потерями
Размер потока : 3,99 Мбайт (4%)
-

Скриншоты

-
Яндекс.Метрика
Рейтинг@Mail.ru