Домашний аквариум [01-46] (2008-2009) WEBRip

 

Создавать темы 06-Окт-2013 04:10

Домашний аквариум
Страна: Россия, 31 канал, г. Челябинск
Год выпуска: 2008-2009
Серии: 1-3 сезон (46 серий)
Продолжительность: 46 x ~ 00:20:00
Автор, режиссер и ведущий: Анатолий Чернышев
Язык: Русский

От опытного аквариумиста, автора и ведущего программы, Анатолия Чернышева, зритель узнает об основных правилах запуска и содержания домашнего водоема. Бывалые аквариумисты поделятся своим опытом содержания популярных видов водных растений и рыб, а исторические очерки об обсуждаемых видах органично дополнят общее представление о них.
Эта телепрограмма будет интересна как начинающим, так и опытным аквариумистам.
1-3 сезоны:
1-й сезон - 12 серий
2-й сезон - 18 серий
3-й сезон - 16 серий

Качество: WEBRip
Формат видео: MP4
Видео: AVC, 456x342, 4:3, ~1428 kbps, 25 fps
Аудио: AAC, ~96 kbps, 44.1 kHz, 2 ch

MediaInfo

Формат : MPEG-4
Профиль формата : Base Media / Version 2
Идентификатор кодека : mp42
Размер файла : 88,9 Мбайт
Продолжительность : 20 м.
Режим общего битрейта : Переменный
Общий поток : 618 Кбит/сек
Дата кодирования : UTC 2011-11-21 00:04:33
Дата пометки : UTC 2011-11-21 00:04:33
gsst : 0
gstd : 1207181
gssd : B4A7D6F67HM1376412721046921
gshh : r7---sn-n8v7sne7.c.youtube.com
Видео
Идентификатор : 1
Формат : AVC
Формат/Информация : Advanced Video Codec
Профиль формата : [email protected]
Параметр CABAC формата : Нет
Параметр ReFrames формата : 1 кадр
Параметр GOP формата : M=1, N=30
Идентификатор кодека : avc1
Идентификатор кодека/Информация : Advanced Video Coding
Продолжительность : 20 м.
Битрейт : 520 Кбит/сек
Максимальный битрейт : 1780 Кбит/сек
Ширина : 456 пикселей
Высота : 342 пикселя
Соотношение сторон : 4:3
Режим частоты кадров : Постоянный
Частота кадров : 25,000 кадров/сек
Цветовое пространство : YUV
Субдискретизация насыщенности : 4:2:0
Битовая глубина : 8 бит
Тип развёртки : Прогрессивная
Бит/(Пиксели*Кадры) : 0.133
Размер потока : 74,8 Мбайт (84%)
Дата пометки : UTC 2011-11-21 00:04:36
Аудио
Идентификатор : 2
Формат : AAC
Формат/Информация : Advanced Audio Codec
Профиль формата : LC
Идентификатор кодека : 40
Продолжительность : 20 м.
Вид битрейта : Переменный
Битрейт : 96,0 Кбит/сек
Максимальный битрейт : 121 Кбит/сек
Каналы : 2 канала
Расположение каналов : Front: L R
Частота : 44,1 КГц
Метод сжатия : С потерями
Размер потока : 13,8 Мбайт (16%)
Заголовок : IsoMedia File Produced by Google, 5-11-2011
Дата кодирования : UTC 2011-11-21 00:04:35
Дата пометки : UTC 2011-11-21 00:04:36
-
Яндекс.Метрика
Рейтинг@Mail.ru