[ Сегодня на трекере фрилич! Идет свободное скачивание без начисления Download ]

Опасные связи / Dangerous Liaisons (Стивен Фрирз)[1988,драма, мелодрама, BDRip 1080p] от FREEISLAND

 

Создавать темы 23-Дек-2013 16:56

Опасные связиDangerous Liaisons«Lust. Seduction. Revenge. The Game As You've Never Seen It Played Before» Год выпуска: 1988
Страна: США , Великобритания
Жанр: драма, мелодрама
Продолжительность: 01:59:53
Перевод: Профессиональный (дублированный)
Субтитры: Russian (UTF-8), English (UTF-8)
Режиссер: Стивен Фрирз

В ролях:Гленн Клоуз , Джон Малкович , Мишель Пфайффер , Свузи Кёрц , Киану Ривз , Милдред Нэтвик , Ума Турман, Питер Капальди , Джо Шеридан , Валери Гоган
Описание: Франция XVIII столетия. Виконт Вальмон и маркиза де Мертей ведут опасную, чреватую разбитыми сердцами и искалеченными судьбами, игру. Маркиза, желая отомстить давнему любовнику Жеркуру, обещает Вальмону свою благосклонность, если он соблазнит Сесиль Воланж, юную невесту Жеркура. Вместо этого Вальмон увлекается госпожой де Турвель, совершенно забыв про договор, и маркизе приходится искать обходные пути. Невольно для себя безжалостный сердцеед Вальмон попадает под чары добродетельной жены президента Турвеля, задумываясь о той цене, которую придется заплатить всем участникам случившейся интриги.
Рейтинг MPAA: Лицам до 17 лет обязательно присутствие взрослого


Качество: BDRip 1080p
Формат: MKV
Видео кодек: H.264 (AVC)
Аудио кодеk: AC3
Видео: 1920x1080 (16:9), 23.976 fps, AVC, 11.5 Mbps
Аудио: Аудио #1: AC3, 384 Kbps, 48.0 KHz, 6 ch RUS CP Digital Dub
Аудио #2: AC3, 192 Kbps, 48.0 KHz, 2 ch RUS Варус Видео VHS Dub
Аудио #3: AC3, 384 Kbps, 48.0 KHz, 6 ch ENG

МедиаИнфо

General
Unique ID : 251585743142928525404615413086638533701 (0xBD45A6D139104CB7AB6E95D8DB276C45)
Complete name : Dangerous.Liaisons.1988.1080p.BDRip.F-HD.mkv
Format : Matroska
Format version : Version 4 / Version 2
File size : 10.4 GiB
Duration : 1h 59mn
Overall bit rate : 12.5 Mbps
Encoded date : UTC 2013-12-23 06:34:22
Writing application : mkvmerge v6.6.0 ('The Edge Of The In Between') built on Dec 1 2013 17:55:00
Writing library : libebml v1.3.0 + libmatroska v1.4.1
Video
ID : 1
Format : AVC
Format/Info : Advanced Video Codec
Format profile : [email protected]
Format settings, CABAC : Yes
Format settings, ReFrames : 4 frames
Codec ID : V_MPEG4/ISO/AVC
Duration : 1h 59mn
Bit rate : 11.5 Mbps
Width : 1 920 pixels
Height : 1 080 pixels
Display aspect ratio : 16:9
Frame rate mode : Constant
Frame rate : 23.976 fps
Color space : YUV
Chroma subsampling : 4:2:0
Bit depth : 8 bits
Scan type : Progressive
Bits/(Pixel*Frame) : 0.231
Stream size : 9.42 GiB (90%)
Writing library : x264 core 140 r2377 1ca7bb9
Encoding settings : cabac=1 / ref=4 / deblock=1:-3:-3 / analyse=0x3:0x113 / me=umh / subme=11 / psy=1 / psy_rd=1.00:0.05 / mixed_ref=1 / me_range=32 / chroma_me=1 / trellis=2 / 8x8dct=1 / cqm=0 / deadzone=21,11 / fast_pskip=0 / chroma_qp_offset=-3 / threads=6 / lookahead_threads=1 / sliced_threads=0 / nr=0 / decimate=1 / interlaced=0 / bluray_compat=0 / constrained_intra=0 / bframes=9 / b_pyramid=2 / b_adapt=2 / b_bias=0 / direct=3 / weightb=1 / open_gop=0 / weightp=2 / keyint=240 / keyint_min=23 / scenecut=40 / intra_refresh=0 / rc_lookahead=40 / rc=2pass / mbtree=0 / bitrate=11505 / ratetol=1.0 / qcomp=0.65 / qpmin=0 / qpmax=69 / qpstep=4 / cplxblur=20.0 / qblur=0.5 / vbv_maxrate=50000 / vbv_bufsize=62500 / nal_hrd=none / filler=0 / ip_ratio=1.30 / pb_ratio=1.20 / aq=1:0.60
Language : English
Default : Yes
Forced : No
Color primaries : BT.709
Transfer characteristics : BT.709
Matrix coefficients : BT.709
Audio #1
ID : 2
Format : AC-3
Format/Info : Audio Coding 3
Mode extension : CM (complete main)
Format settings, Endianness : Big
Codec ID : A_AC3
Duration : 1h 59mn
Bit rate mode : Constant
Bit rate : 384 Kbps
Channel(s) : 6 channels
Channel positions : Front: L C R, Side: L R, LFE
Sampling rate : 48.0 KHz
Bit depth : 16 bits
Compression mode : Lossy
Stream size : 329 MiB (3%)
Title : Дубляж, CP Digita
Language : Russian
Default : Yes
Forced : No
Audio #2
ID : 3
Format : AC-3
Format/Info : Audio Coding 3
Mode extension : CM (complete main)
Format settings, Endianness : Big
Codec ID : A_AC3
Duration : 1h 59mn
Bit rate mode : Constant
Bit rate : 192 Kbps
Channel(s) : 2 channels
Channel positions : Front: L R
Sampling rate : 48.0 KHz
Bit depth : 16 bits
Compression mode : Lossy
Stream size : 165 MiB (2%)
Title : Дубляж, Варус Видео VHS
Language : Russian
Default : No
Forced : No
Audio #3
ID : 4
Format : AC-3
Format/Info : Audio Coding 3
Mode extension : CM (complete main)
Format settings, Endianness : Big
Codec ID : A_AC3
Duration : 1h 59mn
Bit rate mode : Constant
Bit rate : 384 Kbps
Channel(s) : 6 channels
Channel positions : Front: L C R, Side: L R, LFE
Sampling rate : 48.0 KHz
Bit depth : 16 bits
Compression mode : Lossy
Stream size : 329 MiB (3%)
Language : English
Default : No
Forced : No
Text #1
ID : 5
Format : UTF-8
Codec ID : S_TEXT/UTF8
Codec ID/Info : UTF-8 Plain Text
Language : Russian
Default : No
Forced : No
Text #2
ID : 6
Format : UTF-8
Codec ID : S_TEXT/UTF8
Codec ID/Info : UTF-8 Plain Text
Language : English
Default : No
Forced : No
Menu
00:00:00.000 : en:00:00:00.000
00:04:13.252 : en:00:04:13.252
00:06:45.071 : en:00:06:45.071
00:10:41.765 : en:00:10:41.765
00:13:08.328 : en:00:13:08.328
00:19:01.932 : en:00:19:01.932
00:22:14.708 : en:00:22:14.708
00:24:29.634 : en:00:24:29.634
00:27:49.291 : en:00:27:49.291
00:30:35.541 : en:00:30:35.541
00:33:03.772 : en:00:33:03.772
00:36:56.713 : en:00:36:56.713
00:41:03.460 : en:00:41:03.460
00:48:30.740 : en:00:48:30.740
00:52:46.579 : en:00:52:46.579
00:56:11.034 : en:00:56:11.034
00:59:39.992 : en:00:59:39.992
01:02:03.344 : en:01:02:03.344
01:07:08.565 : en:01:07:08.565
01:11:25.530 : en:01:11:25.530
01:14:36.220 : en:01:14:36.220
01:16:33.130 : en:01:16:33.130
01:20:29.740 : en:01:20:29.740
01:25:23.701 : en:01:25:23.701
01:30:46.439 : en:01:30:46.439
01:32:27.041 : en:01:32:27.041
01:36:16.479 : en:01:36:16.479
01:40:57.885 : en:01:40:57.885
01:46:31.967 : en:01:46:31.967
01:49:14.005 : en:01:49:14.005
01:52:59.689 : en:01:52:59.689
01:54:29.194 : en:01:54:29.194
01:55:38.221 : en:01:55:38.221
01:56:59.636 : en:01:56:59.636

Знаете ли Вы, что...

★ Фильм снят по мотивам романа Шодерло де Лакло «Опасные связи» (Les Liaisons dangereuses, 1782).
★ Актриса Свузи Кертц так же сыграла в современной экранизации книги — «Жестокие Игры» 1999 г.
★ Дрю Бэрримор пробовалась на роль Сесили де Воланж и была довольно близка к тому, чтобы получить ее, однако в конце концов ей все-таки предпочли Уму Турман.
★ Мадам де Розмон — последняя роль в кино американской актрисы Милдред Нэтвик (1905 — 1994).
★ Фильм Стивена Фрирза «перебежал дорогу» в кинопрокате экранизации «Опасных связей», осуществленной Милошем Форманом. Форман приступил к съемкам раньше, чем Фрирз, однако британский режиссер успел снять свой фильм быстрее и выпустил его в прокат в декабре 1988 года. Вследствие этого Милошу Форману пришлось изменить заглавие ленты. Фильм «Вальмон» вышел на экраны только в ноябре 1989 года и потерпел полный коммерческий провал — несмотря на то что, по мнению многих критиков, по художественным достоинствам фильм Формана не только не уступает, но и в некоторых аспектах превосходит картину Стивена Фрирза.
★ Мишель Пфайффер одновременно получила предложение сыграть мадам де Турвель в «Опасных связях» Стивена Фрирза — и предложение сыграть маркизу де Мертей в «Вальмоне» Милоша Формана. Актриса выбрала роль мадам де Турвель, а в маркизу де Мертей в «Вальмоне» в результате сыграла Аннетт Бенинг, для которой эта роль стала первой яркой работой в большом кино.

Скриншоты

Релиз от:
Яндекс.Метрика
Рейтинг@Mail.ru