Viasat History: Как климат изменил ход истории / How Climate Made History [серии 1-2 из 2] (Sigrun Laste) [2015 г., Документальный, климат, история, SATRip]

 

Создавать темы 27-Дек-2015 19:43

-Как климат изменил ход истории / How Climate Made History [серии 1-2 из 2]- Год выпуска: 2015
Страна: Германия, Story House for ZDF
Жанр: Документальный, климат, история
Продолжительность: 00:51:39
Перевод: Профессиональный (одноголосый)
Режиссер: Sigrun Laste-Описание:-Последнее время создается впечатление, что стихийные бедствия с каждым годом по своей силе превосходят все наши ожидания: губительные засухи, невероятные потопы, тающие полярные льды и разрушающие ураганы. Программа расскажет о том, как изменения рельефа и расположения материков, светимости солнца, образования горных цепей сформировали климат Земли. Мы также узнаем, каким образом сегодня человек влияет на изменение погодных условий, и к чему нам стоит быть готовыми в будущем.-Описание серий:-01. В этой серии мы узнаем, как формирование нашей планеты, ее положение по отношению к солнцу и рождение горных цепей способствовали созданию уникального климата Земли.
02. В этой серии мы узнаем, каким образом сегодня человек влияет на изменение климата и к чему нам стоит быть готовыми в будущем
-Доп. информация: переведено и озвучено на студии "SDI Media", перевод Т. Вишневской, текст читает Виктория Бабанова-Качество: SATRip
Контейнер: AVI
Видео кодек: XviD
Аудио кодек: AC3
Видео: 704x400 25fps 1800 kbps
Аудио: AC3 2ch, 48kHz, 192 kbps-

MediaInfo

Format : AVI
Format/Info : Audio Video Interleave
File size : 738 MiB
Duration : 51mn 38s
Overall bit rate : 1 997 Kbps
Writing application : TMPGEnc Video Mastering Works 5 Version. 5.0.6.38
Writing library : TMPGEnc Video Mastering Works 5 Version. 5.0.6.38
Video
ID : 0
Format : MPEG-4 Visual
Format profile : Advanced [email protected]
Format settings, BVOP : 2
Format settings, QPel : No
Format settings, GMC : No warppoints
Format settings, Matrix : Default (H.263)
Muxing mode : Packed bitstream
Codec ID : XVID
Codec ID/Hint : XviD
Duration : 51mn 38s
Bit rate : 1 797 Kbps
Width : 704 pixels
Height : 400 pixels
Display aspect ratio : 16:9
Frame rate : 25.000 fps
Color space : YUV
Chroma subsampling : 4:2:0
Bit depth : 8 bits
Scan type : Progressive
Compression mode : Lossy
Bits/(Pixel*Frame) : 0.255
Stream size : 664 MiB (90%)
Writing library : XviD 73
Audio
ID : 1
Format : AC-3
Format/Info : Audio Coding 3
Mode extension : CM (complete main)
Format settings, Endianness : Big
Codec ID : 2000
Duration : 51mn 38s
Bit rate mode : Constant
Bit rate : 192 Kbps
Channel(s) : 2 channels
Channel positions : Front: L R
Sampling rate : 48.0 KHz
Bit depth : 16 bits
Compression mode : Lossy
Stream size : 70.9 MiB (10%)
Alignment : Aligned on interleaves
Interleave, duration : 240 ms (6.00 video frames)
Interleave, preload duration : 224 ms
-Скриншоты--Благодарность за предоставленный рип: -Время раздачи: 24/7 (круглосуточно)-
Яндекс.Метрика
Рейтинг@Mail.ru