[ Сегодня на трекере фрилич! Идет свободное скачивание без начисления Download ]

(House / Disco House) VA - Megapolis FM-Mainstream Sound Of Your Life (Петр Левинский,DJ Дан,DJ Nejtrino,DJ Smash) - 2006, FLAC (image+.cue), lossless

 

Создавать темы 27-Дек-2015 19:28

-VA - Megapolis FM-Mainstream Sound Of Your Life
Петр Левинский, DJ Дан, DJ Nejtrino, DJ Smash
- Жанр: House / Disco House
Год выпуска диска: 2006
Производитель диска: Россия
Аудио кодек: FLAC
Тип рипа: image+.cue
Битрейт аудио: lossless
Продолжительность: 4CD

Треклист:

CD1 • Mix by Петр Левинский: 15 Треков (1:13:07)

EAC

Exact Audio Copy V0.99 prebeta 5 from 4. May 2009
Отчёт EAC об извлечении, выполненном 22. мая 2010, 14:48
MIX BY Петр Левинский / Megapolis FM: Mainstream Sounds Of Your Life
Дисковод: Optiarc DVD RW AD-7203S Adapter: 0 ID: 2
Режим чтения : Достоверность
Использование точного потока : Да
Отключение кэша аудио : Да
Использование указателей C2 : Нет
Коррекция смещения при чтении : 48
Способность читать области Lead-in и Lead-out : Нет
Заполнение пропущенных сэмплов тишиной : Да
Удаление блоков с тишиной в начале и конце : Нет
При вычислениях CRC использовались нулевые сэмплы : Да
Интерфейс : Встроенный Win32-интерфейс для Win NT/2000
Выходной формат : Пользовательский кодировщик
Выбранный битрейт : 1024 kBit/s
Качество : Высокий
Добавление ID3-тэга : Нет
Утилита сжатия : C:\Program Files (x86)\Exact Audio Copy\Flac\flac.exe
Дополнительные параметры : -8 -V %s
TOC извлечённого CD
Трек | Старт | Длительность | Начальный сектор | Конечный сектор
---------------------------------------------------------------------
1 | 0:00.00 | 3:34.31 | 0 | 16080
2 | 3:34.31 | 3:18.35 | 16081 | 30965
3 | 6:52.66 | 4:02.14 | 30966 | 49129
4 | 10:55.05 | 5:27.70 | 49130 | 73724
5 | 16:23.00 | 4:28.69 | 73725 | 93893
6 | 20:51.69 | 6:44.38 | 93894 | 124231
7 | 27:36.32 | 5:58.12 | 124232 | 151093
8 | 33:34.44 | 5:26.50 | 151094 | 175593
9 | 39:01.19 | 5:06.31 | 175594 | 198574
10 | 44:07.50 | 4:48.18 | 198575 | 220192
11 | 48:55.68 | 4:43.19 | 220193 | 241436
12 | 53:39.12 | 4:42.71 | 241437 | 262657
13 | 58:22.08 | 4:07.15 | 262658 | 281197
14 | 62:29.23 | 6:30.28 | 281198 | 310475
15 | 68:59.51 | 4:08.08 | 310476 | 329083
Характеристики диапазона извлечения и сообщения об ошибках
Выбранный диапазон
Имя файла E:\RuTracker.Org\Megapolis FM - Mainstream Sound Of Your Life\CD1\MIX BY Петр Левинский - Megapolis FM Mainstream Sounds Of Your Life.wav
Пиковый уровень 100.0 %
Качество диапазона 100.0 %
CRC теста 5FAB20D0
CRC копии 5FAB20D0
Копирование... OK
Ошибок не произошло
AccurateRip: сводка
Трек 1 нет в базе данных
Трек 2 нет в базе данных
Трек 3 нет в базе данных
Трек 4 нет в базе данных
Трек 5 нет в базе данных
Трек 6 нет в базе данных
Трек 7 нет в базе данных
Трек 8 нет в базе данных
Трек 9 нет в базе данных
Трек 10 нет в базе данных
Трек 11 нет в базе данных
Трек 12 нет в базе данных
Трек 13 нет в базе данных
Трек 14 нет в базе данных
Трек 15 нет в базе данных
Ни одного трека нет в базе AccurateRip
Конец отчёта
CD2 • Mix by DJ Дан: 12 Треков (1:16:01)

EAC

Exact Audio Copy V0.99 prebeta 5 from 4. May 2009
Отчёт EAC об извлечении, выполненном 22. мая 2010, 15:29
MIX BY DJ Дан / Megapolis FM: Mainstream Sounds Of Your Life
Дисковод: Optiarc DVD RW AD-7203S Adapter: 0 ID: 2
Режим чтения : Достоверность
Использование точного потока : Да
Отключение кэша аудио : Да
Использование указателей C2 : Нет
Коррекция смещения при чтении : 48
Способность читать области Lead-in и Lead-out : Нет
Заполнение пропущенных сэмплов тишиной : Да
Удаление блоков с тишиной в начале и конце : Нет
При вычислениях CRC использовались нулевые сэмплы : Да
Интерфейс : Встроенный Win32-интерфейс для Win NT/2000
Выходной формат : Пользовательский кодировщик
Выбранный битрейт : 1024 kBit/s
Качество : Высокий
Добавление ID3-тэга : Нет
Утилита сжатия : C:\Program Files (x86)\Exact Audio Copy\Flac\flac.exe
Дополнительные параметры : -8 -V %s
TOC извлечённого CD
Трек | Старт | Длительность | Начальный сектор | Конечный сектор
---------------------------------------------------------------------
1 | 0:00.00 | 7:59.34 | 0 | 35958
2 | 7:59.34 | 5:19.63 | 35959 | 59946
3 | 13:19.22 | 6:29.12 | 59947 | 89133
4 | 19:48.34 | 6:44.02 | 89134 | 119435
5 | 26:32.36 | 7:00.47 | 119436 | 150982
6 | 33:33.08 | 6:34.48 | 150983 | 180580
7 | 40:07.56 | 5:53.50 | 180581 | 207105
8 | 46:01.31 | 7:29.12 | 207106 | 240792
9 | 53:30.43 | 5:06.40 | 240793 | 263782
10 | 58:37.08 | 4:29.30 | 263783 | 283987
11 | 63:06.38 | 7:12.63 | 283988 | 316450
12 | 70:19.26 | 5:41.53 | 316451 | 342078
Характеристики диапазона извлечения и сообщения об ошибках
Выбранный диапазон
Имя файла E:\RuTracker.Org\Megapolis FM - Mainstream Sound Of Your Life\CD2\MIX BY DJ Дан - Megapolis FM Mainstream Sounds Of Your Life.wav
Пиковый уровень 100.0 %
Качество диапазона 100.0 %
CRC теста B72C0A9F
CRC копии B72C0A9F
Копирование... OK
Ошибок не произошло
AccurateRip: сводка
Трек 1 нет в базе данных
Трек 2 нет в базе данных
Трек 3 нет в базе данных
Трек 4 нет в базе данных
Трек 5 нет в базе данных
Трек 6 нет в базе данных
Трек 7 нет в базе данных
Трек 8 нет в базе данных
Трек 9 нет в базе данных
Трек 10 нет в базе данных
Трек 11 нет в базе данных
Трек 12 нет в базе данных
Ни одного трека нет в базе AccurateRip
Конец отчёта
CD3 • Mix by DJ Nejtrino: 12 Треков (1:02:34)

EAC

Exact Audio Copy V0.99 prebeta 5 from 4. May 2009
Отчёт EAC об извлечении, выполненном 22. мая 2010, 12:54
MIX BY DJ Nejtrino / Megapolis FM: Mainstream Sounds Of Your Life
Дисковод: Optiarc DVD RW AD-7203S Adapter: 0 ID: 2
Режим чтения : Достоверность
Использование точного потока : Да
Отключение кэша аудио : Да
Использование указателей C2 : Нет
Коррекция смещения при чтении : 48
Способность читать области Lead-in и Lead-out : Нет
Заполнение пропущенных сэмплов тишиной : Да
Удаление блоков с тишиной в начале и конце : Нет
При вычислениях CRC использовались нулевые сэмплы : Да
Интерфейс : Встроенный Win32-интерфейс для Win NT/2000
Выходной формат : Пользовательский кодировщик
Выбранный битрейт : 1024 kBit/s
Качество : Высокий
Добавление ID3-тэга : Нет
Утилита сжатия : C:\Program Files (x86)\Exact Audio Copy\Flac\flac.exe
Дополнительные параметры : -8 -V %s
TOC извлечённого CD
Трек | Старт | Длительность | Начальный сектор | Конечный сектор
---------------------------------------------------------------------
1 | 0:00.00 | 7:00.13 | 0 | 31512
2 | 7:00.13 | 3:10.11 | 31513 | 45773
3 | 10:10.24 | 5:33.68 | 45774 | 70816
4 | 15:44.17 | 3:14.40 | 70817 | 85406
5 | 18:58.57 | 6:12.47 | 85407 | 113353
6 | 25:11.29 | 5:54.66 | 113354 | 139969
7 | 31:06.20 | 5:04.65 | 139970 | 162834
8 | 36:11.10 | 5:00.59 | 162835 | 185393
9 | 41:11.69 | 5:48.31 | 185394 | 211524
10 | 47:00.25 | 6:45.06 | 211525 | 241905
11 | 53:45.31 | 4:45.61 | 241906 | 263341
12 | 58:31.17 | 4:03.48 | 263342 | 281614
Характеристики диапазона извлечения и сообщения об ошибках
Выбранный диапазон
Имя файла E:\RuTracker.Org\Megapolis FM - Mainstream Sound Of Your Life\CD3\MIX BY DJ Nejtrino - Megapolis FM Mainstream Sounds Of Your Life.wav
Пиковый уровень 100.0 %
Качество диапазона 100.0 %
CRC теста 4C4EB1D7
CRC копии 4C4EB1D7
Копирование... OK
Ошибок не произошло
AccurateRip: сводка
Трек 1 нет в базе данных
Трек 2 нет в базе данных
Трек 3 нет в базе данных
Трек 4 нет в базе данных
Трек 5 нет в базе данных
Трек 6 нет в базе данных
Трек 7 нет в базе данных
Трек 8 нет в базе данных
Трек 9 нет в базе данных
Трек 10 нет в базе данных
Трек 11 нет в базе данных
Трек 12 нет в базе данных
Ни одного трека нет в базе AccurateRip
Конец отчёта
CD4 • Mix by DJ Smash: 12 Треков (58:08)

EAC

Exact Audio Copy V0.99 prebeta 5 from 4. May 2009
Отчёт EAC об извлечении, выполненном 22. мая 2010, 14:04
MIX BY DJ Smash / Megapolis FM: Mainstream Sounds Of Your Life
Дисковод: Optiarc DVD RW AD-7203S Adapter: 0 ID: 2
Режим чтения : Достоверность
Использование точного потока : Да
Отключение кэша аудио : Да
Использование указателей C2 : Нет
Коррекция смещения при чтении : 48
Способность читать области Lead-in и Lead-out : Нет
Заполнение пропущенных сэмплов тишиной : Да
Удаление блоков с тишиной в начале и конце : Нет
При вычислениях CRC использовались нулевые сэмплы : Да
Интерфейс : Встроенный Win32-интерфейс для Win NT/2000
Выходной формат : Пользовательский кодировщик
Выбранный битрейт : 1024 kBit/s
Качество : Высокий
Добавление ID3-тэга : Нет
Утилита сжатия : C:\Program Files (x86)\Exact Audio Copy\Flac\flac.exe
Дополнительные параметры : -8 -V %s
TOC извлечённого CD
Трек | Старт | Длительность | Начальный сектор | Конечный сектор
---------------------------------------------------------------------
1 | 0:00.00 | 6:38.40 | 0 | 29889
2 | 6:38.40 | 5:17.71 | 29890 | 53735
3 | 11:56.36 | 4:13.34 | 53736 | 72744
4 | 16:09.70 | 4:08.48 | 72745 | 91392
5 | 20:18.43 | 4:05.18 | 91393 | 109785
6 | 24:23.61 | 5:42.52 | 109786 | 135487
7 | 30:06.38 | 3:52.02 | 135488 | 152889
8 | 33:58.40 | 5:07.66 | 152890 | 175980
9 | 39:06.31 | 5:53.73 | 175981 | 202528
10 | 45:00.29 | 5:24.35 | 202529 | 226863
11 | 50:24.64 | 5:17.10 | 226864 | 250648
12 | 55:41.74 | 2:26.48 | 250649 | 261646
Характеристики диапазона извлечения и сообщения об ошибках
Выбранный диапазон
Имя файла E:\RuTracker.Org\Megapolis FM - Mainstream Sound Of Your Life\CD4\MIX BY DJ Smash - Megapolis FM Mainstream Sounds Of Your Life.wav
Пиковый уровень 100.0 %
Качество диапазона 100.0 %
CRC теста D6D98A29
CRC копии D6D98A29
Копирование... OK
Ошибок не произошло
AccurateRip: сводка
Трек 1 нет в базе данных
Трек 2 нет в базе данных
Трек 3 нет в базе данных
Трек 4 нет в базе данных
Трек 5 нет в базе данных
Трек 6 нет в базе данных
Трек 7 нет в базе данных
Трек 8 нет в базе данных
Трек 9 нет в базе данных
Трек 10 нет в базе данных
Трек 11 нет в базе данных
Трек 12 нет в базе данных
Ни одного трека нет в базе AccurateRip
Конец отчёта
Яндекс.Метрика
Рейтинг@Mail.ru