Переводчик (2015,криминал, драма) WEB-DLRip | КПК | iTunes

 

Создавать темы 20-Дек-2015 19:43

-• Переводчик •- Страна: Россия
Производство: Фонд Кино, Централ Партнершип
Год выпуска: 2015
Жанр: криминал, драма
Режиссёр: Алексей Нужный
В ролях: Леонид Ярмольник, Александр Ильин мл., Мария Андреева, Дмитрий Астрахан, Семен Трескунов, Луиза-Габриэла Бровина, Клара Лаго, Михаил Шамигулов, Станислав Дужников, Елена Плаксина
Перевод: Оригинал [iTunes]- Описание: Воскресный папа отправляется в командировку вместе со своим двенадцатилетним сыном. Оказавшись свидетелем криминальной разборки, которую затеял главарь местной банды, сын попадает в больницу. Спасти жизнь мальчику может операция за границей. Но она стоит больших денег. Отец решается на отчаянный шаг — он соглашается исполнить три желания главаря банды.-- Качество: WEB-DLRip
Продолжительность: 01:09:15
Формат: MP4
Видео кодек: H.264
Аудио кодек: AAC-LC
Свойства видео: 640x286 (2:39:1), 23.976 fps, 500 kbps (0.122 bit/pixel)
Свойства аудио: 48.0 KHz, 2 ch, 128 kbps

MediaInfo

General
Complete name : Переводчик.2O15.WEB-DLRip.mp4
Format : MPEG-4
Format profile : Base Media
Codec ID : isom
File size : 313 MiB
Duration : 1h 9mn
Overall bit rate mode : Variable
Overall bit rate : 632 Kbps
Encoded date : UTC 2015-12-18 22:45:38
Tagged date : UTC 2015-12-18 22:45:38
Video
ID : 1
Format : AVC
Format/Info : Advanced Video Codec
Format profile : [email protected]
Format settings, CABAC : Yes
Format settings, ReFrames : 9 frames
Codec ID : avc1
Codec ID/Info : Advanced Video Coding
Duration : 1h 9mn
Bit rate : 500 Kbps
Maximum bit rate : 1 774 Kbps
Width : 640 pixels
Height : 268 pixels
Display aspect ratio : 2.40:1
Frame rate mode : Constant
Frame rate : 23.976 fps
Color space : YUV
Chroma subsampling : 4:2:0
Bit depth : 8 bits
Scan type : Progressive
Bits/(Pixel*Frame) : 0.122
Stream size : 248 MiB (79%)
Title : [email protected]
Writing library : x264 core 146 r2538 121396c
Encoding settings : cabac=1 / ref=9 / deblock=1:-3:-3 / analyse=0x3:0x113 / me=umh / subme=11 / psy=1 / psy_rd=1.00:0.00 / mixed_ref=1 / me_range=32 / chroma_me=1 / trellis=2 / 8x8dct=1 / cqm=0 / deadzone=21,11 / fast_pskip=0 / chroma_qp_offset=-2 / threads=6 / lookahead_threads=1 / sliced_threads=0 / nr=0 / decimate=0 / interlaced=0 / bluray_compat=0 / constrained_intra=0 / bframes=9 / b_pyramid=2 / b_adapt=2 / b_bias=0 / direct=3 / weightb=1 / open_gop=0 / weightp=2 / keyint=240 / keyint_min=23 / scenecut=40 / intra_refresh=0 / rc=2pass / mbtree=0 / bitrate=500 / ratetol=1.0 / qcomp=0.60 / qpmin=0 / qpmax=69 / qpstep=4 / cplxblur=20.0 / qblur=0.5 / ip_ratio=1.40 / pb_ratio=1.30 / aq=1:1.00
Encoded date : UTC 2015-12-18 22:45:38
Tagged date : UTC 2015-12-18 22:45:55
Audio
ID : 2
Format : AAC
Format/Info : Advanced Audio Codec
Format profile : LC
Codec ID : 40
Duration : 1h 9mn
Bit rate mode : Variable
Bit rate : 128 Kbps
Maximum bit rate : 172 Kbps
Channel(s) : 2 channels
Channel positions : Front: L R
Sampling rate : 48.0 KHz
Compression mode : Lossy
Stream size : 63.4 MiB (20%)
Encoded date : UTC 2015-12-18 21:10:37
Tagged date : UTC 2015-12-18 22:45:55

Скриншоты

Яндекс.Метрика
Рейтинг@Mail.ru