А зори здесь тихие (1972) HDDVDRip 720p от ExKinoRay

 

Создавать темы 18-Дек-2015 12:19

Информация о фильме
Название: А зори здесь тихие
Год выхода: 1972
Жанр: Военный, драма, экранизация
Режиссер: Станислав Ростоцкий
В ролях: Андрей Мартынов, Ирина Шевчук, Ольга Остроумова, Елена Драпеко, Ирина Долганова, Екатерина Маркова, Людмила Зайцева, Алексей Чернов, Алла Мещерякова, Нина Емельянова, Юрий Сорокин, Борис Токарев (I), Георгий Мартынюк, Кирилл Столяров, Игорь Костолевский, Владимир Ивашов, Виктор Авдюшко, Ирина Кмит, Наталья Пярн, Владимир Рудый, Евгений Меньшов, Светлана Борисова
О фильме:
Действие происходит во время Великой Отечественной войны (1941-1945)... Россия, Карелия, осень 1941 года. Пять девушек - зенитчиц, многим из которых нет еще и 20 лет, и их командир, старшина Васков, неожиданно обнаруживают, что в этой, еще далекой от линии фронта местности, высадился немецкий диверсионный отряд. Враги пытаются проникнуть дальше в тыл советских войск с заданием уничтожить ряд важных объектов. Васков с пятью девочками принимают неравный бой против шестнадцати до зубов вооруженных фрицев. Экранизация по произведению Бориса Васильева.
Страна: СССР, Киностудия им. М. Горького
Продолжительность: 01:34:13 + 01:25:54
Перевод: не требуется
Файл
Кодек: x264
Качество: HDDVDRip 720p - Custom
Видео: MPEG-4 AVC, 5370 Кбит/с, 1280x534
Звук: AC3, 2 ch, 192 Кбит/с
Субтитры: Русские (на немецкие титры)-Релиз от:
Автор релиза: -

Скриншоты

Медиа-Инфо

raw [info]: 1280x534p 1:1 @ 25/1 fps (cfr)
x264 [info]: using SAR=1/1
x264 [info]: using cpu capabilities: MMX2 SSE2Fast SSSE3 SSE4.2 AVX
x264 [info]: profile High, level 4.1
x264 [info]: frame I:757 Avg QP:16.97 size:161347
x264 [info]: frame P:43532 Avg QP:19.95 size: 59307
x264 [info]: frame B:84562 Avg QP:21.67 size: 17960
====================================================================================================
Общее
Уникальный идентификатор : 210594671443359242714028934506033674120 (0x9E6F0EF2647980D28BC33DD8F90B7788)
Полное имя : R:МОИ РИПЫА зори здесь тихие_1972-HDDVDRip 720pЗори-1.mkv
Формат : Matroska
Версия формата : Version 2
Размер файла : 3,65 Гбайт
Продолжительность : 1 ч. 34 м.
Общий поток : 5543 Кбит/сек
Дата кодирования : UTC 2015-10-19 07:41:12
Программа кодирования : mkvmerge v5.8.0 ('No Sleep / Pillow') built on Sep 2 2012 15:37:04
Библиотека кодирования : libebml v1.2.3 + libmatroska v1.3.0
Видео
Идентификатор : 1
Формат : AVC
Формат/Информация : Advanced Video Codec
Профиль формата : [email protected]
Параметр CABAC формата : Да
Параметр ReFrames формата : 12 кадров
Идентификатор кодека : V_MPEG4/ISO/AVC
Продолжительность : 1 ч. 34 м.
Битрейт : 5350 Кбит/сек
Ширина : 1280 пикселей
Высота : 534 пикселя
Соотношение сторон : 2,40:1
Режим частоты кадров : Постоянный
Частота кадров : 25,000 кадров/сек
Цветовое пространство : YUV
Субдискретизация насыщенности : 4:2:0
Битовая глубина : 8 бит
Тип развёртки : Прогрессивная
Бит/(Пиксели*Кадры) : 0.313
Размер потока : 3,45 Гбайт (95%)
Библиотека кодирования : x264 core 148 r2579 73ae2d1
Настройки программы : cabac=1 / ref=12 / deblock=1:-3:-2 / analyse=0x3:0x113 / me=umh / subme=10 / psy=1 / psy_rd=0.75:0.05 / mixed_ref=1 / me_range=32 / chroma_me=1 / trellis=2 / 8x8dct=1 / cqm=0 / deadzone=21,11 / fast_pskip=0 / chroma_qp_offset=-3 / threads=12 / lookahead_threads=2 / sliced_threads=0 / nr=0 / decimate=0 / interlaced=0 / bluray_compat=0 / constrained_intra=0 / bframes=7 / b_pyramid=2 / b_adapt=2 / b_bias=0 / direct=3 / weightb=1 / open_gop=0 / weightp=2 / keyint=250 / keyint_min=25 / scenecut=40 / intra_refresh=0 / rc=2pass / mbtree=0 / bitrate=5350 / ratetol=1.0 / qcomp=0.63 / qpmin=0 / qpmax=39 / qpstep=4 / cplxblur=20.0 / qblur=0.5 / ip_ratio=1.40 / pb_ratio=1.30 / aq=1:0.60
Язык : English
Default : Да
Forced : Нет
Цветовой диапазон : Limited
Основные цвета : BT.709
Характеристики трансфера : BT.709
Коэффициенты матрицы : BT.709
Аудио
Идентификатор : 2
Формат : AC-3
Формат/Информация : Audio Coding 3
Расширение режима : CM (complete main)
Параметр Endianness формата : Big
Идентификатор кодека : A_AC3
Продолжительность : 1 ч. 34 м.
Вид битрейта : Постоянный
Битрейт : 192 Кбит/сек
Каналы : 2 канала
Расположение каналов : Front: L R
Частота : 48,0 КГц
Метод сжатия : С потерями
Размер потока : 129 Мбайт (3%)
Язык : Russian
Default : Да
Forced : Нет
Текст
Идентификатор : 3
Формат : UTF-8
Идентификатор кодека : S_TEXT/UTF8
Идентификатор кодека/Информация : UTF-8 Plain Text
Заголовок : Перевод титров
Язык : Russian
Default : Да
Forced : Да
Яндекс.Метрика
Рейтинг@Mail.ru