BBC: Жанна д’Арк – святая воительница / Joan of Arc: God's Warrior (Luct Swindler) [2015 г., Документальный, постановочный, история, HDTVRip 720p]

 

Создавать темы 30-Ноя-2015 10:22

-Жанна д’Арк – святая воительница / Joan of Arc: God's Warrior- Год выпуска: 2015
Страна: Великобритания, Mathlight for BBC
Жанр: Документальный, постановочный, история
Продолжительность: 00:58:53
Перевод: Профессиональный (одноголосый)
Режиссер: Luct Swindler
В ролях: Ведущая - писательница и историк Хелен Кастор / Helen Cast-Описание:-Английская писательница и историк Хелен Кастор расскажет о жизни и смерти одной из самых легендарных героинь Франции – Жанны д’Арк. Жанна была неординарной личностью, она была не просто воином во времена, когда считалось, что женщины даже не могут сражаться, но она возглавила целую армию. Ни одна из жертв инквизиции не удостоилась такого внимания со стороны историков и богословов, как знаменитая Орлеанская дева. Читая манускрипты тех лет, мы сможешь услышать истинный голос Жанны и понять, каким же человеком она была на самом деле.-Доп. информация: переведено и озвучено на студии "SDI Media", перевод Светланы Дойтш, текст читает Виктория Бабанова-Качество: HDTVRip 720p
Контейнер: MKV
Видео кодек: H.264
Аудио кодек: AC3
Видео: 1280x720 25.00fps 2836 Kbps
Аудио 1: (Rus) AC3, 2ch, 192 kbps, 48 kHz
Аудио 2: (En) AAC, 2ch, 192 kbps, 48 kHz-

MediaInfo

Format : Matroska
Format version : Version 4 / Version 2
File size : 1.59 GiB
Duration : 58mn 52s
Overall bit rate mode : Variable
Overall bit rate : 3 878 Kbps
Encoded date : UTC 2015-11-29 21:45:10
Writing application : mkvmerge v7.3.0 ('Nouages') 64bit built on Oct 22 2014 18:53:34
Writing library : libebml v1.3.0 + libmatroska v1.4.1
DURATION : 00:58:52.896000000
NUMBER_OF_FRAMES : 110403
NUMBER_OF_BYTES : 84789504
_STATISTICS_WRITING_APP : mkvmerge v7.3.0 ('Nouages') 64bit built on Oct 22 2014 18:53:34
_STATISTICS_WRITING_DATE_UTC : 2015-11-29 21:45:10
_STATISTICS_TAGS : BPS DURATION NUMBER_OF_FRAMES NUMBER_OF_BYTES
Video
ID : 1
Format : AVC
Format/Info : Advanced Video Codec
Format profile : [email protected]
Format settings, CABAC : Yes
Format settings, ReFrames : 3 frames
Codec ID : V_MPEG4/ISO/AVC
Duration : 58mn 52s
Bit rate mode : Variable
Bit rate : 3 500 Kbps
Maximum bit rate : 8 000 Kbps
Width : 1 280 pixels
Height : 720 pixels
Display aspect ratio : 16:9
Frame rate mode : Constant
Frame rate : 25.000 fps
Standard : NTSC
Color space : YUV
Chroma subsampling : 4:2:0
Bit depth : 8 bits
Scan type : Progressive
Bits/(Pixel*Frame) : 0.152
Stream size : 1.41 GiB (88%)
Writing library : x264 core 114
Encoding settings : cabac=1 / ref=3 / deblock=1:0:0 / analyse=0x3:0x113 / me=hex / subme=7 / psy=1 / psy_rd=1.00:0.00 / mixed_ref=1 / me_range=16 / chroma_me=1 / trellis=1 / 8x8dct=1 / cqm=2 / deadzone=21,11 / fast_pskip=1 / chroma_qp_offset=-4 / threads=6 / sliced_threads=0 / slices=1 / nr=0 / decimate=1 / interlaced=0 / constrained_intra=0 / bframes=3 / b_pyramid=0 / b_adapt=1 / b_bias=0 / direct=1 / weightb=1 / open_gop=0 / weightp=2 / keyint=250 / keyint_min=25 / scenecut=40 / intra_refresh=0 / rc_lookahead=40 / rc=2pass / mbtree=1 / bitrate=3500 / ratetol=1.0 / qcomp=0.60 / qpmin=5 / qpmax=69 / qpstep=4 / cplxblur=20.0 / qblur=0.5 / vbv_maxrate=8000 / vbv_bufsize=7995 / nal_hrd=vbr / ip_ratio=1.40 / aq=1:1.00
Default : Yes
Forced : No
Color primaries : BT.709
Transfer characteristics : BT.709
Matrix coefficients : BT.709
Color range : Limited
Audio #1
ID : 2
Format : AC-3
Format/Info : Audio Coding 3
Mode extension : CM (complete main)
Format settings, Endianness : Big
Codec ID : A_AC3
Duration : 58mn 52s
Bit rate mode : Constant
Bit rate : 192 Kbps
Channel(s) : 2 channels
Channel positions : Front: L R
Sampling rate : 48.0 KHz
Bit depth : 16 bits
Compression mode : Lossy
Stream size : 80.9 MiB (5%)
Language : Russian
Default : No
Forced : No
Audio #2
ID : 3
Format : AC-3
Format/Info : Audio Coding 3
Mode extension : CM (complete main)
Format settings, Endianness : Big
Codec ID : A_AC3
Duration : 58mn 52s
Bit rate mode : Constant
Bit rate : 192 Kbps
Channel(s) : 2 channels
Channel positions : Front: L R
Sampling rate : 48.0 KHz
Bit depth : 16 bits
Compression mode : Lossy
Stream size : 80.9 MiB (5%)
Language : English
Default : Yes
Forced : No
-Скриншоты--Благодарность за предоставленный рип: -Время раздачи: 24/7 (круглосуточно)-
Яндекс.Метрика
Рейтинг@Mail.ru