От любви до ненависти. Уинстон Черчилль [серии 1-2 из 2] (Владимир Журавлёв) [2004 г., Документальный, история, биографический, SATRip]

 

Создавать темы 28-Ноя-2015 23:45

-От любви до ненависти. Уинстон Черчилль [серии 1-2 из 2]- Год выпуска: 2004
Страна: Россия, Караван-Арт
Жанр: Документальный, история, биографический
Продолжительность: 2x~00:43:50
Перевод: Не требуется
Текст читают: Юрий Беляев, Александр Яцко
Режиссер: Владимир Журавлёв
В ролях: В роли Черчилля - Брюс Фортнам-Описание:-Уинстон Леонард Спенсер Черчилль, герцог Мальборо (1874-1965 гг.). Политический деятель, фигура мирового масштаба. Премьер-министр Великобритании в 1940-1945 и в 1951-1955. До 1904 консерватор, затем либерал, с начала 20-х гг. — вновь консерватор, более того — один из лидеров Консервативной партии. С 1908 года неоднократно занимал министерские посты в правительстве. Удостоен Нобелевской премии по литературе в 1953 г. Ленин называл Уинстона Черчилля, одного из организаторов антисоветской интервенции, "самым яростным ненавистником Советской России". Накануне Второй Мировой войны британский премьер стал убежденным и настойчивым сторонником союза капиталистических держав с СССР против Гитлера. Между правительством Черчилля и Советским Союзом были подписаны Соглашение о совместных действиях против фашистской Германии (июль, 1941) и Договор о союзе в войне против Германии (май, 1942). После окончания самой страшной войны в истории человечества потомок герцога Мальборо становится признанным "пионером холодной войны".-Список серий:-01. Как стать героем
02. Друг и враг
-Качество: SATRip
Контейнер: AVI
Видео кодек: XviD
Аудио кодек: AC3
Видео: 704x400 25fps ~1800 Kbps
Аудио: AC3 2ch, 48kHz, 192 kbps-

MediaInfo

Format : AVI
Format/Info : Audio Video Interleave
File size : 626 MiB
Duration : 43mn 49s
Overall bit rate : 1 997 Kbps
Writing application : TMPGEnc Video Mastering Works 5 Version. 5.0.6.38
Writing library : TMPGEnc Video Mastering Works 5 Version. 5.0.6.38
Video
ID : 0
Format : MPEG-4 Visual
Format profile : Advanced [email protected]
Format settings, BVOP : 2
Format settings, QPel : No
Format settings, GMC : No warppoints
Format settings, Matrix : Default (H.263)
Muxing mode : Packed bitstream
Codec ID : XVID
Codec ID/Hint : XviD
Duration : 43mn 49s
Bit rate : 1 798 Kbps
Width : 704 pixels
Height : 400 pixels
Display aspect ratio : 16:9
Frame rate : 25.000 fps
Color space : YUV
Chroma subsampling : 4:2:0
Bit depth : 8 bits
Scan type : Progressive
Compression mode : Lossy
Bits/(Pixel*Frame) : 0.255
Stream size : 564 MiB (90%)
Writing library : XviD 73
Audio
ID : 1
Format : AC-3
Format/Info : Audio Coding 3
Mode extension : CM (complete main)
Format settings, Endianness : Big
Codec ID : 2000
Duration : 43mn 49s
Bit rate mode : Constant
Bit rate : 192 Kbps
Channel(s) : 2 channels
Channel positions : Front: L R
Sampling rate : 48.0 KHz
Bit depth : 16 bits
Compression mode : Lossy
Stream size : 60.2 MiB (10%)
Alignment : Aligned on interleaves
Interleave, duration : 240 ms (6.00 video frames)
Interleave, preload duration : 224 ms
-Скриншоты--Благодарность за предоставленный рип: -Время раздачи: 24/7 (круглосуточно)-
Яндекс.Метрика
Рейтинг@Mail.ru