[ Сегодня на трекере фрилич! Идет свободное скачивание без начисления Download ]

Андрей Куприянов - Обучающий видеокурс 3 шага по оптимизации и защите компьютера (2013) WEBRip

 

Создавать темы 06-Окт-2013 03:45

Автор (режиссер): Андрей Куприянов
Название: 3 шага по оптимизации и защите компьютера.
Год выпуска: 2013
Жанр: Обучающие видеокурсы
Качество видео: PCRec
Продолжительность: 00:45:11
Описание:
В этом курсе автор в максимально сжатом виде, но достаточно подробно, насколько возможно, изложил свои знания касательно оптимизации и защиты компьютера. Освоив материал этого видекурса, Вы сможете добиться от своей машины максимума производительности.
Видеокодек: AVC
Битрейт видео: ~ 737-910 Кбит/сек
Размер кадра: 1152x720
Аудиокодек: AAC
Битрейт аудио: 192 Кбит/сек

Содержание курса:

1. Введение
2. Шаг 1 - Первичная настройка системы
3. Шаг 2 - Антивирусная защита
4. Шаг 3 - Оптимизация ПК
5. Подводим итоги

MediaInfo:

Общее
Полное имя : C:UsersАдминистраторDownloads3 шага по оптимизации и защите компьютера. Обучающий видеокурсУрок 2. Шаг 1-Первичная настройка системы..mp4
Формат : MPEG-4
Профиль формата : Base Media / Version 2
Идентификатор кодека : mp42
Размер файла : 105 Мбайт
Продолжительность : 13 м.
Режим общего битрейта : Переменный
Общий поток : 1105 Кбит/сек
Дата кодирования : UTC 2013-08-05 08:58:42
Дата пометки : UTC 2013-08-05 08:58:42
gsst : 0
gstd : 796305
gssd : B3E41C0E6MM1380714216914828
gshh : r3---sn-nu5gh5o-uaae.c.youtube.com
Видео
Идентификатор : 1
Формат : AVC
Формат/Информация : Advanced Video Codec
Профиль формата : [email protected]
Параметр CABAC формата : Да
Параметр ReFrames формата : 1 кадр
Идентификатор кодека : avc1
Идентификатор кодека/Информация : Advanced Video Coding
Продолжительность : 13 м.
Битрейт : 910 Кбит/сек
Максимальный битрейт : 26,0 Мбит/сек
Ширина : 1152 пикселя
Высота : 720 пикселей
Соотношение сторон : 16:10
Режим частоты кадров : Постоянный
Частота кадров : 30,000 кадров/сек
Цветовое пространство : YUV
Субдискретизация насыщенности : 4:2:0
Битовая глубина : 8 бит
Тип развёртки : Прогрессивная
Бит/(Пиксели*Кадры) : 0.037
Размер потока : 86,4 Мбайт (82%)
Дата пометки : UTC 2013-08-05 08:58:49
Аудио
Идентификатор : 2
Формат : AAC
Формат/Информация : Advanced Audio Codec
Профиль формата : LC
Идентификатор кодека : 40
Продолжительность : 13 м.
Вид битрейта : Переменный
Битрейт : 192 Кбит/сек
Максимальный битрейт : 203 Кбит/сек
Каналы : 2 канала
Расположение каналов : Front: L R
Частота : 44,1 КГц
Метод сжатия : С потерями
Размер потока : 18,2 Мбайт (17%)
Заголовок : IsoMedia File Produced by Google, 5-11-2011
Дата кодирования : UTC 2013-08-05 08:58:46
Дата пометки : UTC 2013-08-05 08:58:49
Общее
Полное имя : C:UsersАдминистраторDownloads3 шага по оптимизации и защите компьютера. Обучающий видеокурсУрок 4. Шаг 3 - Оптимизация ПК..mp4
Формат : MPEG-4
Профиль формата : Base Media / Version 2
Идентификатор кодека : mp42
Размер файла : 80,0 Мбайт
Продолжительность : 12 м.
Режим общего битрейта : Переменный
Общий поток : 931 Кбит/сек
Дата кодирования : UTC 2013-08-05 10:14:57
Дата пометки : UTC 2013-08-05 10:14:57
gsst : 0
gstd : 721188
gssd : B4A7DD183MH1380692308840765
gshh : r3---sn-5hn7su76.c.youtube.com
Видео
Идентификатор : 1
Формат : AVC
Формат/Информация : Advanced Video Codec
Профиль формата : [email protected]
Параметр CABAC формата : Да
Параметр ReFrames формата : 1 кадр
Параметр GOP формата : M=1, N=60
Идентификатор кодека : avc1
Идентификатор кодека/Информация : Advanced Video Coding
Продолжительность : 12 м.
Битрейт : 737 Кбит/сек
Максимальный битрейт : 10,5 Мбит/сек
Ширина : 1152 пикселя
Высота : 720 пикселей
Соотношение сторон : 16:10
Режим частоты кадров : Постоянный
Частота кадров : 30,000 кадров/сек
Цветовое пространство : YUV
Субдискретизация насыщенности : 4:2:0
Битовая глубина : 8 бит
Тип развёртки : Прогрессивная
Бит/(Пиксели*Кадры) : 0.030
Размер потока : 63,3 Мбайт (79%)
Дата пометки : UTC 2013-08-05 10:15:13
Аудио
Идентификатор : 2
Формат : AAC
Формат/Информация : Advanced Audio Codec
Профиль формата : LC
Идентификатор кодека : 40
Продолжительность : 12 м.
Вид битрейта : Переменный
Битрейт : 192 Кбит/сек
Максимальный битрейт : 202 Кбит/сек
Каналы : 2 канала
Расположение каналов : Front: L R
Частота : 44,1 КГц
Метод сжатия : С потерями
Размер потока : 16,5 Мбайт (21%)
Заголовок : IsoMedia File Produced by Google, 5-11-2011
Дата кодирования : UTC 2013-08-05 10:15:06
Дата пометки : UTC 2013-08-05 10:15:13

Скриншоты

Яндекс.Метрика
Рейтинг@Mail.ru