[ Сегодня на трекере фрилич! Идет свободное скачивание без начисления Download ]

Rush - R40 Live (2015) BDRip 720p

 

Создавать темы 26-Ноя-2015 07:16

Информация о концерте
Оригинальное название: Rush - R40 Live
Год выхода: 2015
Жанр: Progressive-Rock
Режиссер: Dale Heslip
В ролях: Rush, Geddy Lee, Alex Lifeson, Neil Peart

Описание:

All roads have led to this. Forty-one years in the making, the R40 Live tour took a very real journey back through time. Beginning with the grand design: a state-of-the-art stage set that pivots, rolls and dives, and brings Clockwork Angels in to bombastic, colorful life before marching stridently back in time (through theatre stages, a panoply of band and fan shots, the accrued memories of a life spent playing live) to a mocked-up school gym and the band playing there; a solitary bass amp set on the chair behind Geddy Lee, a mirror ball spiraling crazily above, casting thin rods of light like a light rain across the crowd, "Working Man" coming to a shuddering halt as the band's beginning becomes their end. Rush recorded and filmed R40 LIVE over two sold-out shows in the band s hometown of Toronto on June 17 & 19, 2015 in the middle of what was rumored to be their last grand-scale tour. The set list includes classics "Tom Sawyer," "The Spirit of Radio" and "2112" as well as rarities "Xanadu," "Jacob's Ladder" "Lakeside Park," not to mention, for the first time ever live, Losing It. R40 LIVE is the ultimate career-spanning live retrospective of Geddy Lee, Alex Lifeson and Neil Peart; a celebration of 40+ years of epic rock. Captured with 14 cameras in full HD quality, the concert is presented in feature film style with true Dolby stereo, 5.1 surround sound, and DTS HD surround sound.
Лицензия
Официальный сайт
Страна: Canada
Студия: Universal Music Group
Продолжительность: 02:41:37

Файл

Формат: Matroska
Видео: 1280x720 at 23.976 fps, [email protected], ~4900 kbps avg
Aудио#1: English: 48 kHz, PCM, 2/0 (L,R) ch, ~2304 kbps avg
Aудио#2: English: 48 kHz, DTS, 3/2 (L,C,R,l,r) + LFE ch, ~1509 kbps avg
Aудио#3: English: 48 kHz, AC3, 3/2 (L,C,R,l,r) + LFE ch, ~448 kbps avg
Субтитры: None

Треклист

Set One
1. The World is .. The World is ...
2. The Anarchist
3. Headlong Flight
4. Far Cry
5. The Main Monkey Business
6. How It Is
7. Animate
8. Roll the Bones
9. Between the Wheels
10. Losing It (with Ben Mink)
11. Subdivisions
Set Two
12. No Country for Old Hens
13. Tom Sawyer
14. YYZ
15. The Spirit of Radio
16. Natural Science
17. Jacob's Ladder
18. Hemispheres: Prelude
19. Cygnus X-1/The Story So Far (drum solo)
20. Closer to the Heart
21. Xanadu
22. 2112
Encore
23. Mel's Rockpile (with Eugene Levy)
24. Lakeside Park/Anthem
25. What You're Doing/Working Man
26. Exit Stage Left

MI

Общее
Уникальный идентификатор : 171149050408900575329348141222582633719 (0x80C21BAD551F63B9B0D57DA85C9944F7)
Полное имя : Rush - R40 Live.2015.BDRip720p.mkv
Формат : Matroska
Версия формата : Version 4 / Version 2
Размер файла : 10,3 Гбайт
Продолжительность : 2 ч. 41 м.
Общий поток : 9162 Кбит/сек
Дата кодирования : UTC 2015-11-25 15:33:31
Программа кодирования : mkvmerge v8.5.2 ('Crosses') 64bit
Библиотека кодирования : libebml v1.3.3 + libmatroska v1.4.4
Видео
Идентификатор : 1
Формат : AVC
Формат/Информация : Advanced Video Codec
Профиль формата : [email protected]
Параметр CABAC формата : Да
Параметр ReFrames формата : 9 кадров
Идентификатор кодека : V_MPEG4/ISO/AVC
Продолжительность : 2 ч. 41 м.
Номинальный битрейт : 4900 Кбит/сек
Ширина : 1280 пикселей
Высота : 720 пикселей
Соотношение сторон : 16:9
Режим частоты кадров : Постоянный
Частота кадров : 23,976 кадра/сек
Цветовое пространство : YUV
Субдискретизация насыщенности : 4:2:0
Битовая глубина : 8 бит
Тип развёртки : Прогрессивная
Бит/(Пиксели*Кадры) : 0.222
Библиотека кодирования : x264 core 146 r2538 121396c
Настройки программы : cabac=1 / ref=9 / deblock=1:-3:-3 / analyse=0x3:0x113 / me=umh / subme=10 / psy=1 / psy_rd=1.00:0.15 / mixed_ref=1 / me_range=26 / chroma_me=1 / trellis=2 / 8x8dct=1 / cqm=0 / deadzone=21,11 / fast_pskip=1 / chroma_qp_offset=-3 / threads=6 / lookahead_threads=1 / sliced_threads=0 / nr=0 / decimate=1 / interlaced=0 / bluray_compat=0 / constrained_intra=0 / bframes=11 / b_pyramid=2 / b_adapt=2 / b_bias=0 / direct=3 / weightb=1 / open_gop=0 / weightp=2 / keyint=240 / keyint_min=23 / scenecut=40 / intra_refresh=0 / rc_lookahead=80 / rc=2pass / mbtree=1 / bitrate=4900 / ratetol=1.0 / qcomp=0.60 / qpmin=0 / qpmax=69 / qpstep=4 / cplxblur=20.0 / qblur=0.5 / vbv_maxrate=50000 / vbv_bufsize=62500 / nal_hrd=none / filler=0 / ip_ratio=1.40 / aq=1:1.00
Default : Да
Forced : Нет
Аудио #1
Идентификатор : 2
Формат : PCM
Идентификатор кодека : A_PCM/INT/LIT
Продолжительность : 2 ч. 41 м.
Вид битрейта : Постоянный
Каналы : 2 канала
Частота : 48,0 КГц
Битовая глубина : 24 бит
Default : Да
Forced : Нет
Аудио #2
Идентификатор : 3
Формат : DTS
Формат/Информация : Digital Theater Systems
Режим : 16
Параметр Endianness формата : Big
Идентификатор кодека : A_DTS
Продолжительность : 2 ч. 41 м.
Вид битрейта : Постоянный
Битрейт : 1509 Кбит/сек
Каналы : 6 каналов
Расположение каналов : Front: L C R, Side: L R, LFE
Частота : 48,0 КГц
Битовая глубина : 24 бит
Метод сжатия : С потерями
Размер потока : 1,70 Гбайт (16%)
Default : Нет
Forced : Нет
Аудио #3
Идентификатор : 4
Формат : AC-3
Формат/Информация : Audio Coding 3
Расширение режима : CM (complete main)
Параметр Endianness формата : Big
Идентификатор кодека : A_AC3
Продолжительность : 2 ч. 41 м.
Вид битрейта : Постоянный
Битрейт : 448 Кбит/сек
Каналы : 6 каналов
Расположение каналов : Front: L C R, Side: L R, LFE
Частота : 48,0 КГц
Метод сжатия : С потерями
Размер потока : 518 Мбайт (5%)
Default : Нет
Forced : Нет
Меню
00:00:00.000 : en:1. The World is .. The World is...
00:02:26.980 : en:2. The Anarchist
00:09:21.811 : en:3. Headlong Flight
00:18:12.382 : en:4. Far Cry
00:23:38.083 : en:5. The Main Monkey Business
00:30:03.218 : en:6. How It Is
00:34:27.690 : en:7. Animate
00:40:44.108 : en:8. Roll the Bones
00:46:48.222 : en:9. Between the Wheels
00:53:30.040 : en:10. Losing It (with Ben Mink)
00:58:41.518 : en:11. Subdivisions
01:05:02.732 : en:12. No Country for Old Hens
01:09:18.320 : en:13. Tom Sawyer
01:14:36.638 : en:14. YYZ
01:19:07.659 : en:15. The Spirit of Radio
01:24:10.879 : en:16. Natural Science
01:32:58.990 : en:17. Jacob’s Ladder
01:40:17.011 : en:18. Hemispheres: Prelude
01:44:31.223 : en:19. Cygnus Х-1/The Story So Far (drum solo)
01:54:06.798 : en:20. Closer to the Heart
01:57:05.935 : en:21. Xanadu
02:07:45.407 : en:22. 2112
02:20:04.896 : en:23. Mel’s Rockpile (with Eugene Levy)
02:21:38.907 : en:24. Lakeside Park/Anthem
02:27:13.741 : en:25. What You’re Doing/Working Man
02:36:36.887 : en:26. Exit Stage Left
02:39:07.871 : en: Credits

Скриншоты

Яндекс.Метрика
Рейтинг@Mail.ru