[ Сегодня на трекере фрилич! Идет свободное скачивание без начисления Download ]

После храброго сердца (После Бэннокберна) / After Braveheart (After Bannockburn) [серии 1-2 из 2] (Maurice Sweeney) [2015 г., Документально-постановочный, история, SATRip]

 

Создавать темы 16-Ноя-2015 21:54

-После храброго сердца (После Бэннокберна) / After Braveheart (After Bannockburn)
[серии 1-2 из 2]
- Год выпуска: 2015
Страна: Ирландия, Tile Films
Жанр: Документально-постановочный, история
Продолжительность: 2x~00:59:00
Перевод: Профессиональный (двухголосый), компания "Видеофильм ТВ"-Режиссер: Maurice Sweeney-В ролях: Brian Cox, Stuart McMillan, Clive Russell-Описание:-В 1315 году армия из Британии вторглась в Ирландию. Состоящая из 6000 опытных бойцов, это была одна из самых мощных сил, когда-либо вторгавшихся в страну. Но это была не английская армия, эти суровые, одетые в кольчуги воины были шотландцами, горцами из Шотландии и западных островов. Командовал ими Эдуард Брюс, брат Роберта Брюса, короля шотландцев. Цель была проста - выгнать из Ирландии англичан и поставить Эдуарда Брюса королем Ирландии. Это был амбициозный план, уже более 100 лет англичане владели Ирландией и никому не удавалось их победить. Это рассказ о двух кельтских народах, едином наследии и забытой войне, которая могла изменить ход истории...-Список серий:-01. Вторжение Ирландии / Invasion of Ireland
Победа Роберта Брюса над англичанами при Бэннокберне в 1314 не положить конец борьбы Шотландии за независимость. Роберт и его брат Эдвард разработали смелый план - с помощью союзников в Ольстере они объединяют шотландцев и ирландцев в мощный союз против кельтско- английского угрозы. В мае 1315 шотландский армия высадилась в Ольстере.
02. Кельтский альянс / The Celtic Alliance
Вторжение Брюса только что произошло и совпало с крупной катастрофой: Великого Европейского Голодомора 1315-17. В это страшное время тысячи умерли от голода, а многие прибегают к каннибализму. Роберт Брюс пытался спасти ситуацию за счёт прибывающего подкрепления в 1317, но они не смогли сделать решающее влияние. Кампания завершилась бесславно в следующем году.
-Качество: SATRip
Контейнер: AVI
Видео кодек: XviD
Аудио кодек: AC3
Видео: 720x400 25fps ~1800 Kbps
Аудио: AC3 2ch, 48kHz, 192 kbps-

MediaInfo

Format : AVI
Format/Info : Audio Video Interleave
File size : 839 MiB
Duration : 59mn 0s
Overall bit rate : 1 988 Kbps
Writing application : TMPGEnc Video Mastering Works 5 Version. 5.0.6.38
Writing library : TMPGEnc Video Mastering Works 5 Version. 5.0.6.38
Video
ID : 0
Format : MPEG-4 Visual
Format profile : Advanced [email protected]
Format settings, BVOP : 2
Format settings, QPel : No
Format settings, GMC : No warppoints
Format settings, Matrix : Default (H.263)
Muxing mode : Packed bitstream
Codec ID : XVID
Codec ID/Hint : XviD
Duration : 59mn 0s
Bit rate : 1 789 Kbps
Width : 720 pixels
Height : 400 pixels
Display aspect ratio : 16:9
Frame rate : 25.000 fps
Color space : YUV
Chroma subsampling : 4:2:0
Bit depth : 8 bits
Scan type : Progressive
Compression mode : Lossy
Bits/(Pixel*Frame) : 0.248
Stream size : 755 MiB (90%)
Writing library : XviD 73
Audio
ID : 1
Format : AC-3
Format/Info : Audio Coding 3
Mode extension : CM (complete main)
Format settings, Endianness : Big
Codec ID : 2000
Duration : 59mn 0s
Bit rate mode : Constant
Bit rate : 192 Kbps
Channel(s) : 2 channels
Channel positions : Front: L R
Sampling rate : 48.0 KHz
Bit depth : 16 bits
Compression mode : Lossy
Stream size : 81.0 MiB (10%)
Alignment : Aligned on interleaves
Interleave, duration : 240 ms (6.00 video frames)
Interleave, preload duration : 224 ms
-Скриншоты--Благодарность за предоставленный рип: -Время раздачи: 24/7 (круглосуточно)-
Яндекс.Метрика
Рейтинг@Mail.ru