365: Гинденбург и Гитлер / Hindenburg & Hitler (Hindenburg - Der Mann, der Hitler an die Macht verhalf) (Кристоф Вайнерт / Christoph Weinert) [2013 г., Документальный, история, биографический, SATRip]

 

Создавать темы 08-Ноя-2015 21:42

-365: Гинденбург и Гитлер / Hindenburg & Hitler (Hindenburg - Der Mann, der Hitler an die Macht verhalf) (Кристоф Вайнерт / Christoph Weinert)- Год выпуска: 2013
Страна: Германия, NDR / Arte / Looks
Жанр: Документальный, история, биографический
Продолжительность: 00:51:36
Перевод: Профессиональный (одноголосый), студия "SDI Media" по заказу ТПО "Ред Медиа"
Режиссер: Кристоф Вайнерт / Christoph Weinert-Описание:-До появления Гитлера самым харизматичным политическим лидером Германии был Пауль фон Гинденбург (1847-1934). Он был самым успешным немецким генералом Первой мировой войны, благодаря чему стал героем в глазах народа. После войны его дважды избирали рейсхпрезидентом. Единственный в истории Германии человек, избранный главой государства на всенародных выборах. Занимал пост до конца жизни. Его соперником был политический выскочка Адольф Гитлер. Гинденбург презирал его. Но всего через несколько лет он своими руками приведет Гитлера к власти. Почему же?-Качество: SATRip
Контейнер: AVI
Видео кодек: DivX 5
Аудио кодек: AC3
Видео: 720x400 25fps 1800kbps
Аудио: AC3 2ch, 48kHz, 192 kbps-

MediaInfo

Format : AVI
Format/Info : Audio Video Interleave
File size : 739 MiB
Duration : 51mn 36s
Overall bit rate : 2 003 Kbps
Writing application : VirtualDubMod 1.5.10.3 | www.virtualdub-fr.org || (build 2550/release)
Writing library : VirtualDubMod build 2550/release
Video
ID : 0
Format : MPEG-4 Visual
Format profile : Advanced [email protected]
Format settings, BVOP : 1
Format settings, QPel : No
Format settings, GMC : No warppoints
Format settings, Matrix : Default (MPEG)
Codec ID : DX50
Codec ID/Hint : DivX 5
Duration : 51mn 36s
Bit rate : 1 801 Kbps
Width : 720 pixels
Height : 400 pixels
Display aspect ratio : 16:9
Frame rate : 25.000 fps
Color space : YUV
Chroma subsampling : 4:2:0
Bit depth : 8 bits
Scan type : Progressive
Compression mode : Lossy
Bits/(Pixel*Frame) : 0.250
Stream size : 665 MiB (90%)
Writing library : XviD 1.2.1 (UTC 2008-12-04)
Audio
ID : 1
Format : AC-3
Format/Info : Audio Coding 3
Mode extension : CM (complete main)
Format settings, Endianness : Big
Codec ID : 2000
Duration : 51mn 36s
Bit rate mode : Constant
Bit rate : 192 Kbps
Channel(s) : 2 channels
Channel positions : Front: L R
Sampling rate : 48.0 KHz
Bit depth : 16 bits
Compression mode : Lossy
Stream size : 70.9 MiB (10%)
Alignment : Split accross interleaves
Interleave, duration : 40 ms (1.00 video frame)
Interleave, preload duration : 500 ms
-Скриншоты--Благодарность за предоставленный рип: -Время раздачи: 24/7 (круглосуточно)-
Яндекс.Метрика
Рейтинг@Mail.ru