European Mobile Media Association (EMMA) - Судейский диск EMMA 2012 SQ+SPL (EMMA Competition Disc 2012 SQ and SPL) (image + .cue) FLAC

 

Создавать темы 28-Окт-2015 15:10

-Судейский диск EMMA 2012 SQ+SPL (EMMA Competition Disc 2012 SQ and SPL)- Производитель: European Mobile Media Association (EMMA)
Сайт производителя: http://www.emmanet.com/
Год выпуска: 2012
Язык: English
Тип рипа: image + .cue
Аудио кодек: FLAC
Аудио: Lossless
Описание: Тестовый диск, применяемый при судействе автозвука в дисциплинах SQ (Качество звука) и SPL (Звуковое давление) на соревнованиях, проводимых под эгидой EMMA. Выпуск 2012 года включающий в себя 17 треков для SQ, 4 бонусных трека и 6 треков для SPL.
Подробный треклист находится на прилагаемых к раздаче сканах обложки, вместе с пояснениями по оценке для судей.

Отчет качества

Exact Audio Copy V1.0 beta 3 from 29. August 2011
Отчёт EAC об извлечении, выполненном 4. июня 2012, 0:45
Unknown Artist / The EMMA Competition Disc 2012
Дисковод: Optiarc DVD RW AD-7263S Adapter: 1 ID: 1
Режим чтения : Достоверность
Использование точного потока : Да
Отключение кэша аудио : Нет
Использование указателей C2 : Нет
Комбинированное смещение чтения/записи : 0
Способность читать области Lead-in и Lead-out : Нет
Заполнение пропущенных сэмплов тишиной : Да
Удаление блоков с тишиной в начале и конце : Нет
При вычислениях CRC использовались нулевые сэмплы : Да
Интерфейс : Встроенный Win32-интерфейс для Win NT/2000
Выходной формат : Пользовательский кодировщик
Выбранный битрейт : 768 kBit/s
Качество : Высокий
Добавление ID3-тега : Нет
Утилита сжатия : C:\Program Files\Exact Audio Copy\FLAC\FLAC.EXE
Дополнительные параметры : -6 -V -T "ARTIST=%artist%" -T "TITLE=%title%" -T "ALBUM=%albumtitle%" -T "DATE=%year%" -T "TRACKNUMBER=%tracknr%" -T "GENRE=%genre%" -T "COMMENT=%comment%" -T "BAND=%albuminterpret%" -T "ALBUMARTIST=%albuminterpret%" -T "COMPOSER=%composer%" %haslyrics%--tag-from-file=LYRICS="%lyricsfile%"%haslyrics% -T "DISCNUMBER=%cdnumber%" -T "TOTALDISCS=%totalcds%" -T "TOTALTRACKS=%numtracks%" %hascover%--picture="%coverfile%"%hascover% %source% -o %dest%
TOC извлечённого CD
Трек | Старт | Длительность | Начальный сектор | Конечный сектор
---------------------------------------------------------------------
1 | 0:00.00 | 0:51.37 | 0 | 3861
2 | 0:51.37 | 0:23.37 | 3862 | 5623
3 | 1:14.74 | 0:18.72 | 5624 | 7045
4 | 1:33.71 | 0:18.44 | 7046 | 8439
5 | 1:52.40 | 0:17.70 | 8440 | 9784
6 | 2:10.35 | 0:18.57 | 9785 | 11191
7 | 2:29.17 | 0:20.09 | 11192 | 12700
8 | 2:49.26 | 1:03.69 | 12701 | 17494
9 | 3:53.20 | 0:51.09 | 17495 | 21328
10 | 4:44.29 | 1:23.47 | 21329 | 27600
11 | 6:08.01 | 3:41.16 | 27601 | 44191
12 | 9:49.17 | 3:10.67 | 44192 | 58508
13 | 13:00.09 | 3:59.29 | 58509 | 76462
14 | 16:59.38 | 0:07.74 | 76463 | 77061
15 | 17:07.37 | 1:02.56 | 77062 | 81767
16 | 18:10.18 | 1:14.47 | 81768 | 87364
17 | 19:24.65 | 0:07.74 | 87365 | 87963
18 | 19:32.64 | 2:47.46 | 87964 | 100534
19 | 22:20.35 | 7:13.60 | 100535 | 133069
20 | 29:34.20 | 1:12.04 | 133070 | 138473
21 | 30:46.24 | 2:51.16 | 138474 | 151314
22 | 33:37.40 | 0:07.74 | 151315 | 151913
23 | 33:45.39 | 0:09.05 | 151914 | 152593
24 | 33:54.44 | 1:52.00 | 152594 | 160993
25 | 35:46.44 | 2:59.49 | 160994 | 174467
26 | 38:46.18 | 1:45.25 | 174468 | 182367
27 | 40:31.43 | 2:04.19 | 182368 | 191686
28 | 42:35.62 | 2:03.32 | 191687 | 200943
Характеристики диапазона извлечения и сообщения об ошибках
Выбранный диапазон
Имя файла D:\Music\EMMA 2012\Unknown Artist - The EMMA Competition Disc 2012.wav
Пиковый уровень 97.7 %
Скорость извлечения 6.0 X
Качество диапазона 99.9 %
CRC копии A97C2FFB
Копирование... OK
Ошибок не произошло
Конец отчёта
---- CUETools DB Plugin V2.1.3
[CTDB TOCID: Pt8uCUjnYZcsGEKPtOb5MbEAnI8-] found, Submit result: Pt8uCUjnYZcsGEKPtOb5MbEAnI8- has been confirmed
[1243bc8e] (4/4) Accurately ripped
Яндекс.Метрика
Рейтинг@Mail.ru