[ Сегодня на трекере фрилич! Идет свободное скачивание без начисления Download ]

(Disco) Cerrone - The Best of Cerrone Productions (2CD) - 2015, FLAC (image+.cue), lossless

 

Создавать темы 20-Окт-2015 18:41

-Cerrone - The Best of Cerrone Productions (2CD)- Жанр: Disco
Страна-производитель диска (релиза): France
Год издания: 2015
Издатель (лейбл): Because Music
Номер по каталогу: 2564617167
Страна исполнителя (группы): France
Аудиокодек: FLAC (*.flac)
Тип рипа: image+.cue
Битрейт аудио: lossless
Продолжительность: 02:32:20
Источник (релизер): rd
Наличие сканов в содержимом раздачи: да
Смотреть видео-Треклист:-CD 1
01. Cerrone - Supernature (Edit) (4:20)
02. Don Ray - Got To Have Lovin' (Edit) (4:03)
03. Cerrone - Love In C Minor (Edit) (4:23)
04. Cerrone - Midnite Lady (Edit) (4:31)
05. Cerrone - Freak Connection (Edit) (3:50)
06. Revelacion - The House Of The Rising Sun (Edit) (4:40)
07. Cerrone - Look For Love (Edit) (4:43)
08. Don Ray - Standing In The Rain (Edit) (4:04)
09. Kongas - Why Can't We Live Together (Edit) (3:53)
10. Cristal - Phonic (Edit) (4:10)
11. Cerrone - Striptease (B.O.F. Brigade Mondaine I) (3:14)
12. Cerrone - Call Me Tonight (Edit) (3:35)
13. Kongas - Africanism (Edit) (4:39)
14. Cerrone - Your Love Survived (Edit) (4:00)
15. Cerrone - You Are The One (Edit) (4:07)
16. Cerrone - Club Underworld (Edit) (4:18)
17. Cerrone - Love In C Minor (Dimitri From Paris Remix) (8:16)
18. The Shoes & Beth Ditto - Cerrone's Supernature (3:14)

Лог создания рипа

Exact Audio Copy V1.0 beta 3 from 29. August 2011
EAC extraction logfile from 14. June 2015, 20:07
Various Artists / The Best of Cerrone Productions CD1
Used drive  : PLEXTOR BD-R   PX-B940SA   Adapter: 5  ID: 0
Read mode               : Secure
Utilize accurate stream : Yes
Defeat audio cache      : Yes
Make use of C2 pointers : No
Read offset correction                      : 667
Overread into Lead-In and Lead-Out          : No
Fill up missing offset samples with silence : Yes
Delete leading and trailing silent blocks   : No
Null samples used in CRC calculations       : Yes
Used interface                              : Installed external ASPI interface
Used output format              : User Defined Encoder
Selected bitrate                : 128 kBit/s
Quality                         : High
Add ID3 tag                     : Yes
Command line compressor         : G:\Program Files (x86)\Exact Audio Copy\Flac\flac.exe
Additional command line options : -V -8 -T "Date=%year%" -T "Genre=%genre%" %source%
TOC of the extracted CD
     Track |   Start  |  Length  | Start sector | End sector
    ---------------------------------------------------------
        1  |  0:00.00 |  4:23.00 |         0    |    19724
        2  |  4:23.00 |  4:06.46 |     19725    |    38220
        3  |  8:29.46 |  4:25.10 |     38221    |    58105
        4  | 12:54.56 |  4:34.11 |     58106    |    78666
        5  | 17:28.67 |  3:53.28 |     78667    |    96169
        6  | 21:22.20 |  4:43.47 |     96170    |   117441
        7  | 26:05.67 |  4:47.00 |    117442    |   138966
        8  | 30:52.67 |  4:07.00 |    138967    |   157491
        9  | 34:59.67 |  3:56.00 |    157492    |   175191
       10  | 38:55.67 |  4:12.57 |    175192    |   194148
       11  | 43:08.49 |  3:17.00 |    194149    |   208923
       12  | 46:25.49 |  3:37.46 |    208924    |   225244
       13  | 50:03.20 |  4:41.29 |    225245    |   246348
       14  | 54:44.49 |  4:04.63 |    246349    |   264711
       15  | 58:49.37 |  4:10.25 |    264712    |   283486
       16  | 62:59.62 |  4:21.37 |    283487    |   303098
       17  | 67:21.24 |  5:01.19 |    303099    |   325692
       18  | 72:22.43 |  3:14.49 |    325693    |   340291
Range status and errors
Selected range
     Filename D:\MUSIC\Various Artists - The Best of Cerrone Productions CD1.wav
     Peak level 100.0 %
     Extraction speed 2.1 X
     Range quality 100.0 %
     Test CRC 8A59FE60
     Copy CRC 8A59FE60
     Copy OK
No errors occurred
AccurateRip summary
Track  1  accurately ripped (confidence 3)  [26616EB1]  (AR v2)
Track  2  accurately ripped (confidence 3)  [A6A5AD8C]  (AR v2)
Track  3  accurately ripped (confidence 3)  [250C8E7C]  (AR v2)
Track  4  accurately ripped (confidence 3)  [FEA59BBC]  (AR v2)
Track  5  accurately ripped (confidence 3)  [C9BB5107]  (AR v2)
Track  6  accurately ripped (confidence 3)  [F19DAA90]  (AR v2)
Track  7  accurately ripped (confidence 3)  [FF17208D]  (AR v2)
Track  8  accurately ripped (confidence 3)  [C120E36F]  (AR v2)
Track  9  accurately ripped (confidence 3)  [8A39C6C9]  (AR v2)
Track 10  accurately ripped (confidence 3)  [E58FFD27]  (AR v2)
Track 11  accurately ripped (confidence 3)  [F26A4D04]  (AR v2)
Track 12  accurately ripped (confidence 3)  [07B57152]  (AR v2)
Track 13  accurately ripped (confidence 3)  [FD492668]  (AR v2)
Track 14  accurately ripped (confidence 3)  [F9430D5A]  (AR v2)
Track 15  accurately ripped (confidence 3)  [A0F50FC4]  (AR v2)
Track 16  accurately ripped (confidence 3)  [A7C1D877]  (AR v2)
Track 17  accurately ripped (confidence 3)  [2B31D9CE]  (AR v2)
Track 18  accurately ripped (confidence 3)  [B9CBD60E]  (AR v2)
All tracks accurately ripped
End of status report
==== Log checksum C8FF7BEA370C8E78122EA890BF8505A5AE8BF89ED2F51834D0DA842DAF9D65DB ====

Содержание индексной карты (.CUE)

REM GENRE Disco
REM DATE 2014
REM DISCID F311B912
REM COMMENT "ExactAudioCopy v1.0b3"
PERFORMER "Various Artists"
TITLE "The Best of Cerrone Productions CD1"
FILE "Various Artists - The Best of Cerrone Productions CD1.flac" WAVE
  TRACK 01 AUDIO
    TITLE "Supernature (edit) "
    PERFORMER "Cerrone"
    INDEX 01 00:00:00
  TRACK 02 AUDIO
    TITLE "Got To Have Lovin' (edit) "
    PERFORMER "Don Ray"
    INDEX 00 04:22:00
    INDEX 01 04:23:00
  TRACK 03 AUDIO
    TITLE "Love In 'C' Minor (edit) "
    PERFORMER "Cerrone"
    INDEX 00 08:28:47
    INDEX 01 08:29:46
  TRACK 04 AUDIO
    TITLE "Midnite Lady (edit)"
    PERFORMER "Cerrone"
    INDEX 00 12:53:57
    INDEX 01 12:54:56
  TRACK 05 AUDIO
    TITLE "Freak Connection (edit) "
    PERFORMER "Cerrone"
    INDEX 00 17:27:68
    INDEX 01 17:28:67
  TRACK 06 AUDIO
    TITLE "The House Of The Rising Sun (edit) "
    PERFORMER "Revelacion"
    INDEX 00 21:21:21
    INDEX 01 21:22:20
  TRACK 07 AUDIO
    TITLE "Look For Love (edit) "
    PERFORMER "Cerrone"
    INDEX 00 26:04:68
    INDEX 01 26:05:67
  TRACK 08 AUDIO
    TITLE "Standing In The Rain (edit)"
    PERFORMER "Don Ray"
    INDEX 00 30:51:68
    INDEX 01 30:52:67
  TRACK 09 AUDIO
    TITLE "Why Can't We Live Together (edit) "
    PERFORMER "Kongas"
    INDEX 00 34:58:68
    INDEX 01 34:59:67
  TRACK 10 AUDIO
    TITLE "Phonic (edit) "
    PERFORMER "Cristal"
    INDEX 00 38:54:68
    INDEX 01 38:55:67
  TRACK 11 AUDIO
    TITLE "Striptease "
    PERFORMER "B.O.F. Brigade Mondaine I"
    INDEX 00 43:07:50
    INDEX 01 43:08:49
  TRACK 12 AUDIO
    TITLE "Call Me Tonight (edit) "
    PERFORMER "Cerrone"
    INDEX 00 46:24:50
    INDEX 01 46:25:49
  TRACK 13 AUDIO
    TITLE "Africanism (edit) "
    PERFORMER "Kongas"
    INDEX 00 50:02:21
    INDEX 01 50:03:20
  TRACK 14 AUDIO
    TITLE "Your Love Survived (edit)"
    PERFORMER "Cerrone"
    INDEX 00 54:43:50
    INDEX 01 54:44:49
  TRACK 15 AUDIO
    TITLE "You Are The One (edit)"
    PERFORMER "Cerrone"
    INDEX 00 58:48:38
    INDEX 01 58:49:37
  TRACK 16 AUDIO
    TITLE "Club Underworld (edit)"
    PERFORMER "Cerrone"
    INDEX 00 62:58:63
    INDEX 01 62:59:62
  TRACK 17 AUDIO
    TITLE "Love In 'C' Minor (Dimitri From Paris remix lp edit)"
    PERFORMER "Cerrone"
    INDEX 00 67:20:25
    INDEX 01 67:21:24
  TRACK 18 AUDIO
    TITLE "Cerrone's Supernature "
    PERFORMER "Beth Ditto x The Shoes"
    INDEX 00 72:21:44
    INDEX 01 72:22:43
-

CD 2

01. Cerrone - Give Me Love (Edit) (4:39)
02. Cerrone - Cerrone's Paradise (Edit) (3:52)
03. Cerrone - Love Is Here (2:19)
04. Cerrone - Music Of Life (Edit) (4:43)
05. Cerrone - Vaudou Aux Caraibes (Suite) (2:31)
06. Cerrone - Experience (2:30)
07. Cerrone - Je Suis Music (Edit) (3:24)
08. Cerrone - La Secte De Marrakech (Suite) (4:31)
09. Cerrone - Panic (Edit) (3:50)
10. Cerrone - Rocket In The Pocket (Edit) (4:16)
11. Cerrone - Generique Fin (3:24)
12. Cerrone - Soumission (2:03)
13. Cerrone - In The Smoke (Edit) (3:55)
14. Cristal - La Nuit Pour Nous (Edit) (4:37)
15. Cerrone - Take Me (Edit) (3:39)
16. Cerrone - Cycle's Woman (Feat. Santana's Band) [Edit) (3:46)
17. Kongas - Tattoo Woman (Edit) (3:50)
18. Kongas - Dr. Doo-Dah (Edit) (4:02)
19. Cerrone - Music Of Life (Alan Braxe Remix) (5:17)
20. Cerrone - Misunderstanding (A-Trak & Codes Rework) (4:33)

Лог создания рипа

Exact Audio Copy V1.0 beta 3 from 29. August 2011
EAC extraction logfile from 14. June 2015, 20:56
Various Artists / The Best of Cerrone Productions CD2
Used drive  : PLEXTOR BD-R   PX-B940SA   Adapter: 5  ID: 0
Read mode               : Secure
Utilize accurate stream : Yes
Defeat audio cache      : Yes
Make use of C2 pointers : No
Read offset correction                      : 667
Overread into Lead-In and Lead-Out          : No
Fill up missing offset samples with silence : Yes
Delete leading and trailing silent blocks   : No
Null samples used in CRC calculations       : Yes
Used interface                              : Installed external ASPI interface
Used output format              : User Defined Encoder
Selected bitrate                : 128 kBit/s
Quality                         : High
Add ID3 tag                     : Yes
Command line compressor         : G:\Program Files (x86)\Exact Audio Copy\Flac\flac.exe
Additional command line options : -V -8 -T "Date=%year%" -T "Genre=%genre%" %source%
TOC of the extracted CD
     Track |   Start  |  Length  | Start sector | End sector
    ---------------------------------------------------------
        1  |  0:00.00 |  4:42.60 |         0    |    21209
        2  |  4:42.60 |  3:57.00 |     21210    |    38984
        3  |  8:39.60 |  2:22.00 |     38985    |    49634
        4  | 11:01.60 |  4:47.00 |     49635    |    71159
        5  | 15:48.60 |  2:33.47 |     71160    |    82681
        6  | 18:22.32 |  2:32.40 |     82682    |    94121
        7  | 20:54.72 |  3:26.38 |     94122    |   109609
        8  | 24:21.35 |  4:35.00 |    109610    |   130234
        9  | 28:56.35 |  3:53.00 |    130235    |   147709
       10  | 32:49.35 |  4:18.00 |    147710    |   167059
       11  | 37:07.35 |  3:27.00 |    167060    |   182584
       12  | 40:34.35 |  2:04.37 |    182585    |   191921
       13  | 42:38.72 |  3:59.00 |    191922    |   209846
       14  | 46:37.72 |  4:40.38 |    209847    |   230884
       15  | 51:18.35 |  3:41.37 |    230885    |   247496
       16  | 54:59.72 |  3:49.00 |    247497    |   264671
       17  | 58:48.72 |  3:54.00 |    264672    |   282221
       18  | 62:42.72 |  4:05.00 |    282222    |   300596
       19  | 66:47.72 |  5:20.00 |    300597    |   324596
       20  | 72:07.72 |  4:35.55 |    324597    |   345276
Range status and errors
Selected range
     Filename D:\MUSIC\Various Artists - The Best of Cerrone Productions CD2.wav
     Peak level 100.0 %
     Extraction speed 5.3 X
     Range quality 100.0 %
     Test CRC FED2EE89
     Copy CRC FED2EE89
     Copy OK
No errors occurred
AccurateRip summary
Track  1  accurately ripped (confidence 3)  [AA5144C4]  (AR v2)
Track  2  accurately ripped (confidence 3)  [796DCAA5]  (AR v2)
Track  3  accurately ripped (confidence 3)  [E4966E14]  (AR v2)
Track  4  accurately ripped (confidence 3)  [E07323BB]  (AR v2)
Track  5  accurately ripped (confidence 3)  [95029A12]  (AR v2)
Track  6  accurately ripped (confidence 3)  [CA4E3B9F]  (AR v2)
Track  7  accurately ripped (confidence 3)  [9D4FDFB0]  (AR v2)
Track  8  accurately ripped (confidence 3)  [27592A43]  (AR v2)
Track  9  accurately ripped (confidence 3)  [77C8F2FC]  (AR v2)
Track 10  accurately ripped (confidence 3)  [7DCD07D8]  (AR v2)
Track 11  accurately ripped (confidence 3)  [D3E8529C]  (AR v2)
Track 12  accurately ripped (confidence 3)  [C903238A]  (AR v2)
Track 13  accurately ripped (confidence 3)  [49948C49]  (AR v2)
Track 14  accurately ripped (confidence 3)  [C2003562]  (AR v2)
Track 15  accurately ripped (confidence 3)  [00397894]  (AR v2)
Track 16  accurately ripped (confidence 3)  [B94969C0]  (AR v2)
Track 17  accurately ripped (confidence 4)  [20C46F30]  (AR v2)
Track 18  accurately ripped (confidence 3)  [25325813]  (AR v2)
Track 19  accurately ripped (confidence 3)  [2A450F33]  (AR v2)
Track 20  accurately ripped (confidence 2)  [A84A60FB]  (AR v2)
All tracks accurately ripped
End of status report
==== Log checksum 3E35A2E79176354F70F4C9FCCE44BC4D5DCCD726DCE98DEEFD7892B19F7B789D ====

Содержание индексной карты (.CUE)

REM GENRE Disco
REM DATE 2014
REM DISCID 1311FB14
REM COMMENT "ExactAudioCopy v1.0b3"
PERFORMER "Various Artists"
TITLE "The Best of Cerrone Productions CD2"
FILE "Various Artists - The Best of Cerrone Productions CD2.flac" WAVE
  TRACK 01 AUDIO
    TITLE "Give me Love (Edit)"
    PERFORMER "Cerrone"
    INDEX 01 00:00:00
  TRACK 02 AUDIO
    TITLE "Cerrone's Paradise (Edit)"
    PERFORMER "Cerrone"
    INDEX 00 04:41:61
    INDEX 01 04:42:60
  TRACK 03 AUDIO
    TITLE "Love is Here"
    PERFORMER "Cerrone"
    INDEX 00 08:38:61
    INDEX 01 08:39:60
  TRACK 04 AUDIO
    TITLE "Music of Life (Edit)"
    PERFORMER "Cerrone"
    INDEX 00 11:00:61
    INDEX 01 11:01:60
  TRACK 05 AUDIO
    TITLE "Vaudou aux Caraibes (suite)"
    PERFORMER "B.O.F. Brigade Mondaine III"
    INDEX 00 15:47:61
    INDEX 01 15:48:60
  TRACK 06 AUDIO
    TITLE "Experience"
    PERFORMER "B.O.F. Brigade Mondaine I"
    INDEX 00 18:21:33
    INDEX 01 18:22:32
  TRACK 07 AUDIO
    TITLE "Je suis Music (Edit)"
    PERFORMER "Cerrone"
    INDEX 00 20:53:73
    INDEX 01 20:54:72
  TRACK 08 AUDIO
    TITLE "La Secte de Marrakech (suite)"
    PERFORMER "B.O.F. Brigade Mondaine II"
    INDEX 00 24:20:36
    INDEX 01 24:21:35
  TRACK 09 AUDIO
    TITLE "Panic (Edit)"
    PERFORMER "Cerrone"
    INDEX 00 28:55:36
    INDEX 01 28:56:35
  TRACK 10 AUDIO
    TITLE "Rocket in the Pocket (Edit)"
    PERFORMER "Cerrone"
    INDEX 00 32:48:36
    INDEX 01 32:49:35
  TRACK 11 AUDIO
    TITLE "Generique Fin"
    PERFORMER "B.O.F. Brigade Mondaine I"
    INDEX 00 37:06:36
    INDEX 01 37:07:35
  TRACK 12 AUDIO
    TITLE "Soumission"
    PERFORMER "B.O.F. Brigade Mondaine III"
    INDEX 00 40:33:36
    INDEX 01 40:34:35
  TRACK 13 AUDIO
    TITLE "In the Smoke (Edit)"
    PERFORMER "Cerrone"
    INDEX 00 42:37:73
    INDEX 01 42:38:72
  TRACK 14 AUDIO
    TITLE "La nuit pour nous (Edit)"
    PERFORMER "Cristal"
    INDEX 00 46:36:73
    INDEX 01 46:37:72
  TRACK 15 AUDIO
    TITLE "Take Me (Edit)"
    PERFORMER "Cerrone"
    INDEX 00 51:17:36
    INDEX 01 51:18:35
  TRACK 16 AUDIO
    TITLE "Cycle's Woman (feat. Santana's Band) [Edit)"
    PERFORMER "Cerrone"
    INDEX 00 54:58:73
    INDEX 01 54:59:72
  TRACK 17 AUDIO
    TITLE "Tattoo Woman (Edit)"
    PERFORMER "Kongas"
    INDEX 00 58:47:73
    INDEX 01 58:48:72
  TRACK 18 AUDIO
    TITLE "Dr. Doo-Dah (Edit)"
    PERFORMER "Kongas"
    INDEX 00 62:41:73
    INDEX 01 62:42:72
  TRACK 19 AUDIO
    TITLE "Music of Life (Alan Braxe Remix)"
    PERFORMER "Cerrone"
    INDEX 00 66:46:73
    INDEX 01 66:47:72
  TRACK 20 AUDIO
    TITLE "Misunderstanding (A-Trak & Codes Rework)"
    PERFORMER "Cerrone"
    INDEX 00 72:06:73
    INDEX 01 72:07:72

Об альбоме (сборнике)

Issued in a three-panel cardboard sleeve.
Sticker on cellophane:
BEST OF CERRONE - DOUBLE CD 38 TRACKS
Featuring Cerrone's greatest hits and productions:
"Supernature", "Give Me Love", "Love In C Minor" and "Cerrone's Supernature" by Beth Ditto x The Shoes + Remixes by Dimitri From Paris, Alan Braxe, A-Trak
Яндекс.Метрика
Рейтинг@Mail.ru