Paul Mauriat - The best of Paul Mauriat Vol.1 (2013)/K2HD Mastering, Japan/ [FLAC|Lossless]<Instrumental>

 

Создавать темы 19-Дек-2013 07:45

-Paul Mauriat - The best of Paul Mauriat Vol.1 (2013)- Год: 2013
Страна-производитель диска: Japan
Издатель (лейбл): Universal Music
Номер по каталогу #: 5342983
Жанр: Instrumental
Продолжительность: 00:45:25
Кодек: FLAC (*.flac)
Битрейт: Lossless
Тип рипа: image+.cue
Спасибо: Yahin_S
Треклист:
1. Love Is Blue
2. Mamy Blue
3. Un Banc, Un Arbre, Une Rue
4. The Way We Were
5. The Green Lake
6. Have You Never Been Mellow
7. Nadia's Theme
8. I'll Go On Loving Her
9. Feel Like Making Love
10. You Are The Sunshine Of My Life
11. I Won't Last A Day Without You
12. El Bimbo
13. Rain And Tears
14. Le Piano Sur La Vague
15. Bridge Over Troubled Water

Отчёт ЕАС&#58;

Exact Audio Copy V1.0 beta 3 from 29. August 2011
EAC extraction logfile from 16. November 2013, 15:04
Paul Mauriat / The best of Paul Mauriat Vol.1
Used drive  : HL-DT-STDVDRAM GH22NS50   Adapter: 2  ID: 0
Read mode               : Secure
Utilize accurate stream : Yes
Defeat audio cache      : Yes
Make use of C2 pointers : No
Read offset correction                      : 667
Overread into Lead-In and Lead-Out          : No
Fill up missing offset samples with silence : Yes
Delete leading and trailing silent blocks   : No
Null samples used in CRC calculations       : Yes
Used interface                              : Native Win32 interface for Win NT & 2000
Used output format              : User Defined Encoder
Selected bitrate                : 1024 kBit/s
Quality                         : High
Add ID3 tag                     : No
Command line compressor         : C:\Program Files (x86)\Exact Audio Copy\FLAC\FLAC.EXE
Additional command line options : -8 -V -T "ARTIST=%artist%" -T "TITLE=%title%" -T "ALBUM=%albumtitle%" -T "DATE=%year%" -T "TRACKNUMBER=%tracknr%" -T "GENRE=%genre%" -T "COMMENT=%comment%" -T "BAND=%albuminterpret%" -T "COMPOSER=%composer%" %haslyrics%--tag-from-file=LYRICS="%lyricsfile%"%haslyrics% -T "DISCNUMBER=%cdnumber%" -T "TOTALDISCS=%totalcds%" -T "TOTALTRACKS=%numtracks%" %hascover%--picture="%coverfile%"%hascover% %source% -o %dest%
TOC of the extracted CD
     Track |   Start  |  Length  | Start sector | End sector
    ---------------------------------------------------------
        1  |  0:00.00 |  2:39.65 |         0    |    11989
        2  |  2:39.65 |  2:51.30 |     11990    |    24844
        3  |  5:31.20 |  3:22.17 |     24845    |    40011
        4  |  8:53.37 |  2:31.73 |     40012    |    51409
        5  | 11:25.35 |  4:21.72 |     51410    |    71056
        6  | 15:47.32 |  3:15.50 |     71057    |    85731
        7  | 19:03.07 |  3:00.05 |     85732    |    99236
        8  | 22:03.12 |  2:15.42 |     99237    |   109403
        9  | 24:18.54 |  3:17.61 |    109404    |   124239
       10  | 27:36.40 |  2:48.55 |    124240    |   136894
       11  | 30:25.20 |  3:21.10 |    136895    |   151979
       12  | 33:46.30 |  2:35.27 |    151980    |   163631
       13  | 36:21.57 |  2:28.25 |    163632    |   174756
       14  | 38:50.07 |  3:29.68 |    174757    |   190499
       15  | 42:20.00 |  3:05.50 |    190500    |   204424
Range status and errors
Selected range
     Filename D:\Media\Music\Lossless\_UPLOAD_\Paul Mauriat\2013 - The best of Paul Mauriat Vol.1 [K2HD Mastering, Japan]\Paul Mauriat - The best of Paul Mauriat Vol.1.wav
     Peak level 96.6 %
     Extraction speed 1.7 X
     Range quality 100.0 %
     Test CRC A311FD59
     Copy CRC A311FD59
     Copy OK
No errors occurred
AccurateRip summary
Track  1  cannot be verified as accurate (confidence 2)  [3069B024], AccurateRip returned [7BBA624A]  (AR v2)
Track  2  cannot be verified as accurate (confidence 2)  [BA1B7997], AccurateRip returned [7A246D6A]  (AR v2)
Track  3  cannot be verified as accurate (confidence 2)  [1B4EB8DE], AccurateRip returned [4945FEE3]  (AR v2)
Track  4  cannot be verified as accurate (confidence 2)  [1478F105], AccurateRip returned [75B28774]  (AR v2)
Track  5  accurately ripped (confidence 1)  [EA4B78A5]  (AR v2)
Track  6  accurately ripped (confidence 1)  [218D95D5]  (AR v2)
Track  7  accurately ripped (confidence 1)  [DB4464F1]  (AR v2)
Track  8  cannot be verified as accurate (confidence 2)  [99EC8E94], AccurateRip returned [2796C446]  (AR v2)
Track  9  cannot be verified as accurate (confidence 2)  [5C1F9018], AccurateRip returned [8DB1257F]  (AR v2)
Track 10  cannot be verified as accurate (confidence 2)  [EF701DAA], AccurateRip returned [A7419671]  (AR v2)
Track 11  cannot be verified as accurate (confidence 2)  [36B50DC7], AccurateRip returned [3E763320]  (AR v2)
Track 12  cannot be verified as accurate (confidence 2)  [D3B17E23], AccurateRip returned [8463CC8E]  (AR v2)
Track 13  cannot be verified as accurate (confidence 2)  [3166F86E], AccurateRip returned [45E95744]  (AR v2)
Track 14  cannot be verified as accurate (confidence 2)  [06625794], AccurateRip returned [0F3E88CE]  (AR v2)
Track 15  cannot be verified as accurate (confidence 2)  [8CE1A89D], AccurateRip returned [660B753A]  (AR v2)
3 трек(и) скопированы точно
12 трек(и) не удалось проверить на точность
Some tracks could not be verified as accurate
End of status report
==== Log checksum 31D6A76C82E17B7EE7F581508B1B9B9B48CD044CC8ED6FAFB2F3FAEFDEB7C139 ====

Отчёт auCDtect Task manager&#58;

-----------------------
DON'T MODIFY THIS FILE
-----------------------
PERFORMER: auCDtect Task Manager, ver. 1.6.0 RC1 build 1.6.0.1
Copyright (c) 2008-2010 y-soft. All rights reserved
http://y-soft.org
ANALYZER: auCDtect: CD records authenticity detector, version 0.8.2
Copyright (c) 2004 Oleg Berngardt. All rights reserved.
Copyright (c) 2004 Alexander Djourik. All rights reserved.
FILE: Paul Mauriat - The best of Paul Mauriat Vol.1.flac
  Size: 306241043 Hash: 6D2B00FAF40160422FFCCE8915F75814 Accuracy: -m0
  Conclusion: MPEG 95%
  Signature: 15AC7466167E8074C98EF1080720DCEBA488B04B
Яндекс.Метрика
Рейтинг@Mail.ru