Суперкрылья: Джет и его друзья / Super Wings. Jett and his friends [01-18] (2015, Компьютерная анимация, Приключения, Детский, Короткометражный) SATRip | D

 

Создавать темы 23-Сен-2015 20:04

-Суперкрылья: Джет и его друзья / Super Wings. Jett and his friends [01-18] (2015) SATRip -Информация о фильме
Название: Суперкрылья: Джет и его друзья
Оригинальное название: Super Wings. Jett and his friends-Год выхода: 2015-Жанр: Компьютерная анимация, Приключения, Детский, Короткометражный-Режиссер: Юнг Хоон Йонг / Young Hong Jeong-О фильме:
Путешествуйте и изучайте страны мира вместе с персонажами мультсериала! Главный герой мультсериала — симпатичный самолетик Джетт. Он путешествует по миру, доставляя посылки детям. Иногда во время выполнения заданий Джетт сталкивается с трудностями, и на помощь ему приходят верные друзья, — команда бесстрашных трансформеров-самолётиков. В каждом эпизоде мультсериала герои отправляются в новую точку земного шара. Цель проекта — рассказать детям о культуре, традициях и языках различных стран и народов мира. Всего самолётики, а вместе с ними и маленькие телезрители, посетят 52 города в 45 государствах.--Страна: Южная Корея, Китай, США
Студия: FunnyFlux Entertainment, QianQi Animation, Little Airplane Productions
Продолжительность: ~00:12:00 серия
Перевод: Дубляж
Файл
Кодек: XviD / AC3
Качество: SATRip
Видео: MPEG4, XviD, 720x400 (16:9), 25.000 fps, 1 700 Kbps (0.236 bit/pixel)
Звук: AC-3, 48.0 KHz, 2 ch, 192 Kbps, CBR

MediaInfo

General
Complete name : 01. Правильный воздушный змей.avi
Format : AVI
Format/Info : Audio Video Interleave
File size : 163 MiB
Duration : 11mn 57s
Overall bit rate : 1 902 Kbps
Director : SATRip by Thunder
Writing application : VirtualDubMod 1.5.10.3 | www.virtualdub-fr.org || (build 2550/release)
Original source form/Name : Cartoon
Video
ID : 0
Format : MPEG-4 Visual
Format profile : Advanced [email protected]
Format settings, BVOP : 1
Format settings, QPel : No
Format settings, GMC : No warppoints
Format settings, Matrix : Default (H.263)
Codec ID : XVID
Codec ID/Hint : XviD
Duration : 11mn 57s
Bit rate : 1 700 Kbps
Width : 720 pixels
Height : 400 pixels
Display aspect ratio : 16:9
Frame rate : 25.000 fps
Color space : YUV
Chroma subsampling : 4:2:0
Bit depth : 8 bits
Scan type : Progressive
Compression mode : Lossy
Bits/(Pixel*Frame) : 0.236
Stream size : 145 MiB (89%)
Writing library : XviD 1.2.1 (UTC 2008-12-04)
Audio
ID : 1
Format : AC-3
Format/Info : Audio Coding 3
Mode extension : CM (complete main)
Format settings, Endianness : Big
Codec ID : 2000
Duration : 11mn 57s
Bit rate mode : Constant
Bit rate : 192 Kbps
Channel(s) : 2 channels
Channel positions : Front: L R
Sampling rate : 48.0 KHz
Bit depth : 16 bits
Compression mode : Lossy
Stream size : 16.4 MiB (10%)
Alignment : Split accross interleaves
Interleave, duration : 40 ms (1.00 video frame)
Interleave, preload duration : 500 ms

Скриншоты

Яндекс.Метрика
Рейтинг@Mail.ru