(Power Metal, Progressive Metal) Stratovarius - Eternal (Limited Edition) - 2015 [FLAC, image+.cue, lossless]

 

Создавать темы 15-Сен-2015 22:37

-Stratovarius / Eternal (Limited Edition)-- Год издания: 2015
Страна: Finland
Жанр: Power Metal, Progressive Metal
Продолжительность: 00:54:22-Лейбл издания: e.a.r. Music
Страна-выпуска диска: Germany
Номер по каталогу: 0210557EMU
Формат: FLAC
Битрейт аудио: lossless
Тип рипа: image+.cue
Наличие сканов в содержимом раздачи: да
-

Трэклист

01.My Eternal Dream(06:05)
02.Shine in the Dark(05:06)
03.Rise Above It(04:27)
04.Lost Without a Trace(05:28)
05.Feeding the Fire(04:13)
06.In My Line of Work(04:19)
07.Man in the Mirror(04:44)
08.Few Are Those(04:12)
09.Fire in Your Eyes(04:15)
10.The Lost Saga(11:39)

Лог создания рипа

Exact Audio Copy V1.1 from 23. June 2015
EAC extraction logfile from 10. September 2015, 15:42
Stratovarius / Eternal
Used drive  : ATAPI   iHAS122   W   Adapter: 2  ID: 0
Read mode               : Secure
Utilize accurate stream : Yes
Defeat audio cache      : Yes
Make use of C2 pointers : No
Read offset correction                      : 48
Overread into Lead-In and Lead-Out          : No
Fill up missing offset samples with silence : Yes
Delete leading and trailing silent blocks   : No
Null samples used in CRC calculations       : Yes
Used interface                              : Installed external ASPI interface
Used output format              : User Defined Encoder
Selected bitrate                : 1024 kBit/s
Quality                         : High
Add ID3 tag                     : No
Command line compressor         : C:\Program Files\FLAC\flac.exe
Additional command line options : -V -8 -T "Date=%year%" -T "Genre=%genre%" -T"COMMENT=Ripped by  Ilijan" -8 -V %source%
TOC of the extracted CD
     Track |   Start  |  Length  | Start sector | End sector
    ---------------------------------------------------------
        1  |  0:00.00 |  6:04.16 |         0    |    27315
        2  |  6:04.16 |  5:05.11 |     27316    |    50201
        3  | 11:09.27 |  4:26.15 |     50202    |    70166
        4  | 15:35.42 |  5:27.55 |     70167    |    94746
        5  | 21:03.22 |  4:12.02 |     94747    |   113648
        6  | 25:15.24 |  4:18.44 |    113649    |   133042
        7  | 29:33.68 |  4:43.07 |    133043    |   154274
        8  | 34:17.00 |  4:11.18 |    154275    |   173117
        9  | 38:28.18 |  4:14.50 |    173118    |   192217
       10  | 42:42.68 | 11:38.74 |    192218    |   244641
Range status and errors
Selected range
     Filename D:\ИЛИЯН\Stratovarius - Eternal.wav
     Peak level 98.8 %
     Extraction speed 3.8 X
     Range quality 99.9 %
     Test CRC 8D0E1B06
     Copy CRC 8D0E1B06
     Copy OK
No errors occurred
AccurateRip summary
Track  1  not present in database
Track  2  not present in database
Track  3  not present in database
Track  4  not present in database
Track  5  not present in database
Track  6  not present in database
Track  7  not present in database
Track  8  not present in database
Track  9  not present in database
Track 10  not present in database
None of the tracks are present in the AccurateRip database
End of status report
---- CUETools DB Plugin V2.1.6
[CTDB TOCID: xG4rxjyKBzMcQbS_CLmPqJHcBMI-] disk not present in database
Submit result: xG4rxjyKBzMcQbS_CLmPqJHcBMI- has been uploaded

Индексная карта (non-compilant .cue)

REM GENRE "Power Metal"
REM DATE 2015
REM DISCID 890CBD0A
REM COMMENT "ExactAudioCopy v1.1"
PERFORMER "Stratovarius"
TITLE "Eternal"
FILE "Stratovarius - Eternal.flac" WAVE
  TRACK 01 AUDIO
    TITLE "My Eternal Dream"
    PERFORMER "Stratovarius"
    INDEX 01 00:00:00
  TRACK 02 AUDIO
    TITLE "Shine in the Dark"
    PERFORMER "Stratovarius"
    INDEX 00 06:02:60
    INDEX 01 06:04:16
  TRACK 03 AUDIO
    TITLE "Rise Above It"
    PERFORMER "Stratovarius"
    INDEX 01 11:09:27
  TRACK 04 AUDIO
    TITLE "Lost Without a Trace"
    PERFORMER "Stratovarius"
    INDEX 00 15:33:18
    INDEX 01 15:35:42
  TRACK 05 AUDIO
    TITLE "Feeding the Fire"
    PERFORMER "Stratovarius"
    INDEX 01 21:03:22
  TRACK 06 AUDIO
    TITLE "In My Line of Work"
    PERFORMER "Stratovarius"
    INDEX 01 25:15:24
  TRACK 07 AUDIO
    TITLE "Man in the Mirror"
    PERFORMER "Stratovarius"
    INDEX 01 29:33:68
  TRACK 08 AUDIO
    TITLE "Few Are Those"
    PERFORMER "Stratovarius"
    INDEX 01 34:17:00
  TRACK 09 AUDIO
    TITLE "Fire in Your Eyes"
    PERFORMER "Stratovarius"
    INDEX 00 38:25:22
    INDEX 01 38:28:18
  TRACK 10 AUDIO
    TITLE "The Lost Saga"
    PERFORMER "Stratovarius"
    INDEX 00 42:41:07
    INDEX 01 42:42:68

Лог Audiochecker

AUDIOCHECKER v2.0 beta (build 457) - by Dester - [email protected]
~~~~~~~~~~~~~~~~~~~~~~~~~~~~~~~~~~
Started at: пятница, 11. 09. 2015. - 13:47.24
1 file found
1 -===- D:\Torrent files\Stratovarius - 2015 - Eternal (Limited Edition)\Stratovarius - Eternal.flac
  Extracted successfully
  Conclusion: this track is CDDA with probability 99%
  Tempfile successfully deleted.
--Не забываем говорить
Яндекс.Метрика
Рейтинг@Mail.ru