Viasat Nature: Тайны мировых озер / The Secret Life of Lakes (La vie secrete des lacs) [сезон 1 серии 1-5 из 5]

 

Создавать темы 12-Сен-2015 10:08

-Viasat Nature: Тайны мировых озер / The Secret Life of Lakes (La vie secrete des lacs)
[сезон 1 серии 1-5 из 5]
- Год выпуска: 2015
Страна: Франция, ZED Productions Nova Media
Жанр: Документальный, познавательный
Продолжительность: 5x~00:49:55
Перевод: Профессиональный (одноголосый), переведено и озвучено на студии "SDI Media" перевод Татьяны Вишневской, текст читают Юрий Большаков, Родион Кузьмин
Режиссер: Stéphane Bégoin, Bruno Victor-Pujebet, Yanick Rose, Florence Tran, Bernard Guerrini et Mathias Schmitt-Описание:- В мире существует около пяти миллионов озер, которые являются огромным резервуаром пресной воды. Созданные различными климатическими и геологическими условиями, озера являются регулировщиками стока рек, задерживая в своих котловинах полые воды и отдавая их в другие периоды. Несмотря на то, что все озера могут показаться одинаковыми, они все же очень отличаются друг от друга. Одни такие же глубокие, как и океан, другие - можно пересечь пешком. Порой кажется, что некоторые озера существовали целую вечность, другие же появляются и исчезают по мере смены сезонов. Однако всех их объединяет одно - они скрывают удивительные подводные миры.-Список серий:-01. Озеро Насер. Вода в сердце пустыни / Lake Naser. Water in the Heart of the Desert (Le lac Nasser. L'eau au cosur du desert)
В этой серии мы отправимся на озеро Насер, которое образовалось в результате строительства Асуанской плотины, и узнаем, как его появление повлияло на окружающую среду.
02. Озеро Байкал. Лёд и вода / Lake Baikal. Ice and Water (Le lac Baïkal - D'eau et de glace)
В этой серии мы отправимся в самое сердце Сибири, на озеро Байкал, которое является самым глубоким озером на планете и крупнейшим природным резервуаром пресной воды.
03. Озеро Тонлесап. Бьющееся сердце Камбоджи / Tonle Sap. The Beating Heart of Cambodia (Tonie Sap, le coeur battant du Cambodge)
В этой серии мы отправимся на озеро Тонлесап, которое сравнительно не велико и имеет не более метра глубины, однако во время сезона дождей вода в озере поднимается и затопляет окрестные поля и леса.
04. Ленсойс Мараньенсес. Песок и озёра / Lencois Maranenses. Of Sands and Lakes ( Les lacs de sable)
В Бразилии с её тропическим климатом нет настоящих пустынь, однако есть удивительная пустыня Ленсойс Мараньенсес, где в сезон дождей возникает множество пресных озер.
05. Большое Солёное озеро. Мёртвое море Северной Амерки / The Great Salt Lake. The Dead of North America (Le Grand Lac Sale, aux Etats-Unis)
Большое Солёное озеро, расположенное среди засушливых земель и высоких гор, иногда называют "Американским мёртвым морем". Кажется что повышенное содержание соли делает его непригодным для жизни. Однако, на его берегах кормятся и выводят потомство миллионы птиц. Хотя вода в озере соленее чем в океане, здесь сформировалась сложная экосистема, включающая множество потрясающих существ и неожиданных сокровищ. Откуда же взялось такое разнообразие жизненных форм в экстремальных условиях?-Качество: SATRip
Формат: AVI
Видео кодек: XviD
Аудио кодек: AC3
Видео: 704x400 25fps 1800 Kbps
Аудио: AC3 2ch, 48kHz, 192 kbps

MediaInfo

Format : AVI
Format/Info : Audio Video Interleave
File size : 713 MiB
Duration : 49mn 54s
Overall bit rate : 1 999 Kbps
Writing application : TMPGEnc Video Mastering Works 5 Version. 5.0.6.38
Writing library : TMPGEnc Video Mastering Works 5 Version. 5.0.6.38
Video
ID : 0
Format : MPEG-4 Visual
Format profile : Advanced [email protected]
Format settings, BVOP : 2
Format settings, QPel : No
Format settings, GMC : No warppoints
Format settings, Matrix : Default (H.263)
Muxing mode : Packed bitstream
Codec ID : XVID
Codec ID/Hint : XviD
Duration : 49mn 54s
Bit rate : 1 799 Kbps
Width : 704 pixels
Height : 400 pixels
Display aspect ratio : 16:9
Frame rate : 25.000 fps
Color space : YUV
Chroma subsampling : 4:2:0
Bit depth : 8 bits
Scan type : Progressive
Compression mode : Lossy
Bits/(Pixel*Frame) : 0.256
Stream size : 642 MiB (90%)
Writing library : XviD 73
Audio
ID : 1
Format : AC-3
Format/Info : Audio Coding 3
Mode extension : CM (complete main)
Format settings, Endianness : Big
Codec ID : 2000
Duration : 49mn 54s
Bit rate mode : Constant
Bit rate : 192 Kbps
Channel(s) : 2 channels
Channel positions : Front: L R
Sampling rate : 48.0 KHz
Compression mode : Lossy
Stream size : 68.5 MiB (10%)
Alignment : Aligned on interleaves
Interleave, duration : 240 ms (6.00 video frames)
Interleave, preload duration : 224 ms
-Скриншоты--Время раздачи: 24/7 (круглосуточно)-
Яндекс.Метрика
Рейтинг@Mail.ru