(Disco) [CD] VA - Magic Of Disco Vol. 2 (4CD) - 2015, FLAC (image+.cue), lossless

 

Создавать темы 24-Авг-2015 15:14

-Magic Of Disco Vol. 2 (4CD)- Жанр: Disco
Носитель: CD
Страна-производитель диска (релиза): DE
Год издания: 2015
Издатель (лейбл): Universal Music
Номер по каталогу: 535 003-3
Аудиокодек: FLAC (*.flac)
Тип рипа: image+.cue
Битрейт аудио: lossless
Продолжительность: 05:10:02
Источник (релизер): usenet
Наличие сканов в содержимом раздачи: да
Треклист:

CD 1 [01:18:04]

01. The Trammps - Disco Inferno [3:28]
02. Chic - Good Times [3:57]
03. Earth, Wind & Fire - Let's Groove [4:02]
04. Cerrone - Supernature [3:52]
05. Sylvester - You Make Me Feel (Mighty Real) [3:41]
06. Spargo - You And Me [4:12]
07. Dan Hartman - Instant Replay [3:25]
08. D-Train - You're The One For Me [3:50]
09. Rose Royce - Best Love [3:54]
10. Yvonne Elliman - Love Pains [3:51]
11. BB & Q Band - Starlette [4:57]
12. Cameo - Word Up [4:21]
13. Carl Carlton - She's A Bad Mama Jama [3:56]
14. A Taste of Honey - Boogie Oogie Oogie [3:36]
15. Bohannon - Let's Start The Dance [3:49]
16. Odyssey - Going Back To My Roots [3:25]
17. Deodato - S.O.S. Fire In The Sky [4:00]
18. Phyllis Hyman - You Know How To Love Me [3:48]
19. Peaces & Herb - Shake Your Groove Thing [3:58]
20. Chaka Khan - I Feel For You [4:04]

Лог создания рипа

Exact Audio Copy V1.0 beta 6 from 9. April 2015
EAC extraction logfile from 19. August 2015, 17:52
- / The Magic Of Disco Part 2 (CD1)
Used drive  : hp      CDDVDW SH-216DB   Adapter: 1  ID: 0
Read mode               : Secure
Utilize accurate stream : Yes
Defeat audio cache      : Yes
Make use of C2 pointers : No
Read offset correction                      : 6
Overread into Lead-In and Lead-Out          : No
Fill up missing offset samples with silence : Yes
Delete leading and trailing silent blocks   : No
Null samples used in CRC calculations       : Yes
Used interface                              : Native Win32 interface for Win NT & 2000
Used output format : Internal WAV Routines
Sample format      : 44.100 Hz; 16 Bit; Stereo
TOC of the extracted CD
     Track |   Start  |  Length  | Start sector | End sector
    ---------------------------------------------------------
        1  |  0:00.00 |  3:27.49 |         0    |    15573
        2  |  3:27.49 |  3:57.18 |     15574    |    33366
        3  |  7:24.67 |  4:01.49 |     33367    |    51490
        4  | 11:26.41 |  3:52.23 |     51491    |    68913
        5  | 15:18.64 |  3:41.18 |     68914    |    85506
        6  | 19:00.07 |  4:11.49 |     85507    |   104380
        7  | 23:11.56 |  3:24.42 |    104381    |   119722
        8  | 26:36.23 |  3:50.17 |    119723    |   136989
        9  | 30:26.40 |  3:54.10 |    136990    |   154549
       10  | 34:20.50 |  3:50.72 |    154550    |   171871
       11  | 38:11.47 |  4:57.09 |    171872    |   194155
       12  | 43:08.56 |  4:20.51 |    194156    |   213706
       13  | 47:29.32 |  3:55.43 |    213707    |   231374
       14  | 51:25.00 |  3:36.12 |    231375    |   247586
       15  | 55:01.12 |  3:49.19 |    247587    |   264780
       16  | 58:50.31 |  3:24.55 |    264781    |   280135
       17  | 62:15.11 |  3:59.71 |    280136    |   298131
       18  | 66:15.07 |  3:47.42 |    298132    |   315198
       19  | 70:02.49 |  3:57.61 |    315199    |   333034
       20  | 74:00.35 |  4:04.03 |    333035    |   351337
Range status and errors
Selected range
     Filename E:\POST\Post Nieuw\Magic Of Disco Part 2 (EAC)\CD1\The Magic Of Disco Part 2 (CD1).wav
     Peak level 96.6 %
     Extraction speed 8.0 X
     Range quality 99.9 %
     Test CRC F2E232D8
     Copy CRC F2E232D8
     Copy OK
No errors occurred
AccurateRip summary
Track  1  not present in database
Track  2  not present in database
Track  3  not present in database
Track  4  not present in database
Track  5  not present in database
Track  6  not present in database
Track  7  not present in database
Track  8  not present in database
Track  9  not present in database
Track 10  not present in database
Track 11  not present in database
Track 12  not present in database
Track 13  not present in database
Track 14  not present in database
Track 15  not present in database
Track 16  not present in database
Track 17  not present in database
Track 18  not present in database
Track 19  not present in database
Track 20  not present in database
None of the tracks are present in the AccurateRip database
End of status report

CD 2 [01:15:58]

01. Tavares - More Than A Woman [3:28]
02. Donna Summer - Last Dance [3:20]
03. Kool & The Gang - Get Down On It [4:43]
04. The Pointer Sisters - I'm So Excited [3:50]
05. Evelyn Thomas - High Energy [4:01]
06. Stephanie Mills - The Medicine Song [4:56]
07. The S.O.S. Band - Just Be Good To Me [4:26]
08. Lime - Your Love [3:45]
09. The Emotions - Best Of My Love [3:39]
10. Eruption feat. Precious Wilson - I Can't Stand The Rain [3:05]
11. The Jones Girls - Nights Over Egypt [3:38]
12. Quincy Jones - Ai No Corrida [4:21]
13. Liquid Gold - Anyway You Do It [3:02]
14. MFSB feat. The Three Degrees - The Sound Of Philadelphia [3:45]
15. People's Choice - Do It Any Way You Wanna [3:18]
16. Billy Paul - Bring The Family Back [5:06]
17. Dazz Band - Let It All Blow [3:57]
18. Gino Soccio - Dancer [3:32]
19. The O'Jays - Back Stabbers [3:06]
20. Gloria Gaynor - Never Can Say Goodbye [2:59]

Лог создания рипа

Exact Audio Copy V1.0 beta 6 from 9. April 2015
EAC extraction logfile from 19. August 2015, 18:22
- / The Magic Of Disco Part 2 (CD2)
Used drive  : hp      CDDVDW SH-216DB   Adapter: 1  ID: 0
Read mode               : Secure
Utilize accurate stream : Yes
Defeat audio cache      : Yes
Make use of C2 pointers : No
Read offset correction                      : 6
Overread into Lead-In and Lead-Out          : No
Fill up missing offset samples with silence : Yes
Delete leading and trailing silent blocks   : No
Null samples used in CRC calculations       : Yes
Used interface                              : Native Win32 interface for Win NT & 2000
Used output format : Internal WAV Routines
Sample format      : 44.100 Hz; 16 Bit; Stereo
TOC of the extracted CD
     Track |   Start  |  Length  | Start sector | End sector
    ---------------------------------------------------------
        1  |  0:00.00 |  3:28.27 |         0    |    15626
        2  |  3:28.27 |  3:19.68 |     15627    |    30619
        3  |  6:48.20 |  4:43.13 |     30620    |    51857
        4  | 11:31.33 |  3:49.68 |     51858    |    69100
        5  | 15:21.26 |  4:00.64 |     69101    |    87164
        6  | 19:22.15 |  4:56.35 |     87165    |   109399
        7  | 24:18.50 |  4:26.35 |    109400    |   129384
        8  | 28:45.10 |  3:44.39 |    129385    |   146223
        9  | 32:29.49 |  3:38.53 |    146224    |   162626
       10  | 36:08.27 |  3:05.23 |    162627    |   176524
       11  | 39:13.50 |  3:37.53 |    176525    |   192852
       12  | 42:51.28 |  4:21.23 |    192853    |   212450
       13  | 47:12.51 |  3:01.71 |    212451    |   226096
       14  | 50:14.47 |  3:45.20 |    226097    |   242991
       15  | 53:59.67 |  3:17.68 |    242992    |   257834
       16  | 57:17.60 |  5:05.69 |    257835    |   280778
       17  | 62:23.54 |  3:57.26 |    280779    |   298579
       18  | 66:21.05 |  3:32.17 |    298580    |   314496
       19  | 69:53.22 |  3:06.19 |    314497    |   328465
       20  | 72:59.41 |  2:58.65 |    328466    |   341880
Range status and errors
Selected range
     Filename E:\POST\Post Nieuw\Magic Of Disco Part 2 (EAC)\CD2\The Magic Of Disco Part 2 (CD2).wav
     Peak level 96.6 %
     Extraction speed 7.8 X
     Range quality 100.0 %
     Test CRC 3730EB8B
     Copy CRC 3730EB8B
     Copy OK
No errors occurred
AccurateRip summary
Track  1  not present in database
Track  2  not present in database
Track  3  not present in database
Track  4  not present in database
Track  5  not present in database
Track  6  not present in database
Track  7  not present in database
Track  8  not present in database
Track  9  not present in database
Track 10  not present in database
Track 11  not present in database
Track 12  not present in database
Track 13  not present in database
Track 14  not present in database
Track 15  not present in database
Track 16  not present in database
Track 17  not present in database
Track 18  not present in database
Track 19  not present in database
Track 20  not present in database
None of the tracks are present in the AccurateRip database
End of status report

CD 3 [01:17:55]

01. The Jacksons - Can You Feel It [3:58]
02. Sister Sledge - We Are Family [3:27]
03. Foxy - Get Off [3:45]
04. Gwen McCrae - Keep The Fire Burning [3:30]
05. Shalamar - A Night To Remember [4:10]
06. Positive Force - We Got The Funk [4:32]
07. The Three Degrees - The Runner [3:41]
08. Colonel Abrams - Trapped [4:03]
09. Rene And Angela - I'll Be Good [4:09]
10. Viola Wills - Gonna Get Along Without You Now [3:15]
11. Maze feat. Frankie Beverly - Back In Stride [4:12]
12. McFadden & Whitehead - Ain't No Stoppin' Us Now [3:36]
13. Windjammer - Tossing & Turning [4:04]
14. Charo feat. Salsoul Orchestra - Dance A Little Bit Closer [4:32]
15. Silver Convention - Get Up And Boogie (That's Right) [2:45]
16. Miquel Brown - So Many Men, So Little Time [3:26]
17. Mary Jane Girls - In My House [3:57]
18. Machine - There But For The Grace Of God Go I [5:18]
19. Fox The Fox - Precious Little Diamond [4:00]
20. Class Action - Weekend [3:36]

Лог создания рипа

Exact Audio Copy V1.0 beta 6 from 9. April 2015
EAC extraction logfile from 19. August 2015, 18:51
- / The Magic Of Disco Part 2 (CD3)
Used drive  : hp      CDDVDW SH-216DB   Adapter: 1  ID: 0
Read mode               : Secure
Utilize accurate stream : Yes
Defeat audio cache      : Yes
Make use of C2 pointers : No
Read offset correction                      : 6
Overread into Lead-In and Lead-Out          : No
Fill up missing offset samples with silence : Yes
Delete leading and trailing silent blocks   : No
Null samples used in CRC calculations       : Yes
Used interface                              : Native Win32 interface for Win NT & 2000
Used output format : Internal WAV Routines
Sample format      : 44.100 Hz; 16 Bit; Stereo
TOC of the extracted CD
     Track |   Start  |  Length  | Start sector | End sector
    ---------------------------------------------------------
        1  |  0:00.00 |  3:57.49 |         0    |    17823
        2  |  3:57.49 |  3:27.27 |     17824    |    33375
        3  |  7:25.01 |  3:45.35 |     33376    |    50285
        4  | 11:10.36 |  3:30.12 |     50286    |    66047
        5  | 14:40.48 |  4:10.14 |     66048    |    84811
        6  | 18:50.62 |  4:32.26 |     84812    |   105237
        7  | 23:23.13 |  3:40.40 |    105238    |   121777
        8  | 27:03.53 |  4:02.61 |    121778    |   139988
        9  | 31:06.39 |  4:09.26 |    139989    |   158689
       10  | 35:15.65 |  3:15.05 |    158690    |   173319
       11  | 38:30.70 |  4:11.40 |    173320    |   192184
       12  | 42:42.35 |  3:35.62 |    192185    |   208371
       13  | 46:18.22 |  4:03.54 |    208372    |   226650
       14  | 50:22.01 |  4:31.67 |    226651    |   247042
       15  | 54:53.68 |  2:45.22 |    247043    |   259439
       16  | 57:39.15 |  3:26.11 |    259440    |   274900
       17  | 61:05.26 |  3:56.57 |    274901    |   292657
       18  | 65:02.08 |  5:18.37 |    292658    |   316544
       19  | 70:20.45 |  3:59.45 |    316545    |   334514
       20  | 74:20.15 |  3:35.52 |    334515    |   350691
Range status and errors
Selected range
     Filename E:\POST\Post Nieuw\Magic Of Disco Part 2 (EAC)\CD3\The Magic Of Disco Part 2 (CD3).wav
     Peak level 96.6 %
     Extraction speed 8.0 X
     Range quality 99.9 %
     Test CRC 44F94829
     Copy CRC 44F94829
     Copy OK
No errors occurred
AccurateRip summary
Track  1  not present in database
Track  2  not present in database
Track  3  not present in database
Track  4  not present in database
Track  5  not present in database
Track  6  not present in database
Track  7  not present in database
Track  8  not present in database
Track  9  not present in database
Track 10  not present in database
Track 11  not present in database
Track 12  not present in database
Track 13  not present in database
Track 14  not present in database
Track 15  not present in database
Track 16  not present in database
Track 17  not present in database
Track 18  not present in database
Track 19  not present in database
Track 20  not present in database
None of the tracks are present in the AccurateRip database
End of status report

CD 4 [01:18:03]

01. Diana Ross - I'm Coming Out [3:58]
02. Heatwave - Boogie Nights [3:35]
03. KC & The Sunshine Band - That's The Way (I Like It) [3:03]
04. Candi station - Young Hearts Run Free [3:51]
05. Jimmy 'Bo' Horne - Dance Across The Floor [2:49]
06. Van McCoy & The Soul City Symphony - The Hustle [4:00]
07. The Brothers Johnson - Stomp [4:01]
08. Mtume - Juicy Fruit [3:45]
09. First Choice - Doctor Love [3:31]
10. Gwen McCrae - Ain't Nothing Goin' On But The Rent [3:35]
11. Carol Jiani - Hit 'N Run Lover [3:34]
12. Frantique - Strut Your Funky Stuff [4:20]
13. Edwin Birdsong - Cola Bottle Baby [5:05]
14. Rufus & Chaka Khan - Ain't Nobody [4:36]
15. Love Unlimited - I'm So Glad That I'm A Woman [3:50]
16. The Hues Corporation - Rockt The Boat [3:07]
17. Delegation - Put A Little Love On Me [4:29]
18. George McCrae - Rock Your Baby [3:16]
19. Narada Michael Wlden - Divine Emotions [5:11]
20. Indeep - Last Night A DJ Shaved My Wife [4:28]

Лог создания рипа

Exact Audio Copy V1.0 beta 6 from 9. April 2015
EAC extraction logfile from 21. August 2015, 20:17
- / The Magic Of Disco Part 2 (CD4)
Used drive  : hp      CDDVDW SH-216DB   Adapter: 1  ID: 0
Read mode               : Secure
Utilize accurate stream : Yes
Defeat audio cache      : Yes
Make use of C2 pointers : No
Read offset correction                      : 6
Overread into Lead-In and Lead-Out          : No
Fill up missing offset samples with silence : Yes
Delete leading and trailing silent blocks   : No
Null samples used in CRC calculations       : Yes
Used interface                              : Native Win32 interface for Win NT & 2000
Used output format : Internal WAV Routines
Sample format      : 44.100 Hz; 16 Bit; Stereo
TOC of the extracted CD
     Track |   Start  |  Length  | Start sector | End sector
    ---------------------------------------------------------
        1  |  0:00.00 |  3:57.55 |         0    |    17829
        2  |  3:57.55 |  3:35.37 |     17830    |    33991
        3  |  7:33.17 |  3:03.20 |     33992    |    47736
        4  | 10:36.37 |  3:51.12 |     47737    |    65073
        5  | 14:27.49 |  2:49.36 |     65074    |    77784
        6  | 17:17.10 |  4:00.37 |     77785    |    95821
        7  | 21:17.47 |  4:00.40 |     95822    |   113861
        8  | 25:18.12 |  3:45.06 |    113862    |   130742
        9  | 29:03.18 |  3:31.15 |    130743    |   146582
       10  | 32:34.33 |  3:34.43 |    146583    |   162675
       11  | 36:09.01 |  3:33.54 |    162676    |   178704
       12  | 39:42.55 |  4:19.67 |    178705    |   198196
       13  | 44:02.47 |  5:04.66 |    198197    |   221062
       14  | 49:07.38 |  4:35.59 |    221063    |   241746
       15  | 53:43.22 |  3:49.43 |    241747    |   258964
       16  | 57:32.65 |  3:07.06 |    258965    |   272995
       17  | 60:39.71 |  4:28.70 |    272996    |   293165
       18  | 65:08.66 |  3:16.10 |    293166    |   307875
       19  | 68:25.01 |  5:10.53 |    307876    |   331178
       20  | 73:35.54 |  4:28.20 |    331179    |   351298
Range status and errors
Selected range
     Filename E:\POST\Post Nieuw\Magic Of Disco Part 2 (EAC)\CD4\The Magic Of Disco Part 2 (CD4).wav
     Peak level 98.6 %
     Extraction speed 3.4 X
     Range quality 100.0 %
     Test CRC 28BEA1E7
     Copy CRC 28BEA1E7
     Copy OK
No errors occurred
AccurateRip summary
Track  1  not present in database
Track  2  not present in database
Track  3  not present in database
Track  4  not present in database
Track  5  not present in database
Track  6  not present in database
Track  7  not present in database
Track  8  not present in database
Track  9  not present in database
Track 10  not present in database
Track 11  not present in database
Track 12  not present in database
Track 13  not present in database
Track 14  not present in database
Track 15  not present in database
Track 16  not present in database
Track 17  not present in database
Track 18  not present in database
Track 19  not present in database
Track 20  not present in database
None of the tracks are present in the AccurateRip database
End of status report
Яндекс.Метрика
Рейтинг@Mail.ru