Yngwie Malmsteen - Inspiration (1996) FLAC

 

Создавать темы 17-Авг-2015 19:19

Название: Inspiration
Исполнитель: Yngwie Malmsteen
Год: 1996
Жанр: Neoclassical-Metal, Metal, Heavy-Metal
Страна: Sweden
Продолжительность: 00:57:35
Формат/Кодек: FLAC (image+.cue+.log)
Битрейт аудио: Lossless
Официальный сайт
Видеоканал
Лицензия

Трек-лист

01. Carry On Wayward Son
02. Pictures Of Home
03. Gates Of Babylon
04. Manic Depression
05. In The Dead Of Night
06. Mistreated
07. The Sails Of Charon
08. Demon's Eye
09. Anthem
10. Child In Time

Log

Exact Audio Copy V1.0 beta 4 from 7. December 2014
EAC extraction logfile from 13. August 2015, 4:44
Yngwie Malmsteen / Inspiration
Used drive : ASUS DRW-24F1ST Adapter: 1 ID: 2
Read mode : Secure
Utilize accurate stream : Yes
Defeat audio cache : Yes
Make use of C2 pointers : No
Read offset correction : 6
Overread into Lead-In and Lead-Out : No
Fill up missing offset samples with silence : Yes
Delete leading and trailing silent blocks : No
Null samples used in CRC calculations : Yes
Used interface : Native Win32 interface for Win NT & 2000
Used output format : User Defined Encoder
Selected bitrate : 1024 kBit/s
Quality : High
Add ID3 tag : No
Command line compressor : C:Program Files (x86)Exact Audio CopyFlacflac.exe
Additional command line options : -8 -V -T "ARTIST=%artist%" -T "TITLE=%title%" -T "ALBUM=%albumtitle%" -T "DATE=%year%" -T "TRACKNUMBER=%tracknr%" -T "GENRE=%genre%" -T "COMMENT=%comment%" -T "BAND=%albuminterpret%" -T "ALBUMARTIST=%albuminterpret%" -T "COMPOSER=%composer%" %haslyrics%--tag-from-file=LYRICS="%lyricsfile%"%haslyrics% -T "DISCNUMBER=%cdnumber%" -T "TOTALDISCS=%totalcds%" -T "TOTALTRACKS=%numtracks%" %hascover%--picture="%coverfile%"%hascover% %source% -o %dest%
TOC of the extracted CD
Track | Start | Length | Start sector | End sector
---------------------------------------------------------
1 | 0:00.00 | 5:09.03 | 0 | 23177
2 | 5:09.03 | 4:57.04 | 23178 | 45456
3 | 10:06.07 | 7:13.03 | 45457 | 77934
4 | 17:19.10 | 3:41.21 | 77935 | 94530
5 | 21:00.31 | 6:13.07 | 94531 | 122512
6 | 27:13.38 | 7:30.73 | 122513 | 156335
7 | 34:44.36 | 5:06.40 | 156336 | 179325
8 | 39:51.01 | 4:53.03 | 179326 | 201303
9 | 44:44.04 | 4:42.18 | 201304 | 222471
10 | 49:26.22 | 8:08.48 | 222472 | 259119
Range status and errors
Selected range
Filename I:VYngwie Malmsteen - Inspiration.wav
Peak level 100.0 %
Extraction speed 2.9 X
Range quality 100.0 %
Test CRC EA8CF8AA
Copy CRC EA8CF8AA
Copy OK
No errors occurred
AccurateRip summary
Track 1 accurately ripped (confidence 2) [DD79112F] (AR v1)
Track 2 accurately ripped (confidence 2) [3DDB080F] (AR v1)
Track 3 accurately ripped (confidence 2) [037044FA] (AR v1)
Track 4 accurately ripped (confidence 2) [39A7AFCF] (AR v1)
Track 5 accurately ripped (confidence 2) [94C13886] (AR v1)
Track 6 accurately ripped (confidence 2) [779A0DE7] (AR v1)
Track 7 accurately ripped (confidence 2) [33B3FA85] (AR v1)
Track 8 accurately ripped (confidence 2) [CF721DC7] (AR v1)
Track 9 accurately ripped (confidence 2) [0D702F2A] (AR v1)
Track 10 accurately ripped (confidence 2) [32CF6FAB] (AR v1)
All tracks accurately ripped
End of status report
---- CUETools DB Plugin V2.1.4
[CTDB TOCID: aeeBDq6vXOQFapMVGTLAzgqdzM0-] found
Submit result: aeeBDq6vXOQFapMVGTLAzgqdzM0- has been confirmed
Track | CTDB Status
1 | (1/1) Accurately ripped
2 | (1/1) Accurately ripped
3 | (1/1) Accurately ripped
4 | (1/1) Accurately ripped
5 | (1/1) Accurately ripped
6 | (1/1) Accurately ripped
7 | (1/1) Accurately ripped
8 | (1/1) Accurately ripped
9 | (1/1) Accurately ripped
10 | (1/1) Accurately ripped
==== Log checksum D89DC2D6945A649C205C4EC3AEE54177628583B1187E0F5F49003E8E75E8A49F ====
Дополнительная информация: Ингви Йоханн Мальмстин (англ. Yngwie Johann Malmsteen, урождённый Ларс Ю́хан И́нгве Лaннербэк швед. Lars Johan Yngve Lannerbäck, 30 июня 1963, Стокгольм, Швеция) — легендарный шведско-американский гитарист-виртуоз, мультиинструменталист и композитор, один из основоположников неоклассического металла. Ингви Мальмстин — один из самых известных гитаристов в мире, был включён в список «100 величайших гитаристов всех времен по версии Classic Rock».
Яндекс.Метрика
Рейтинг@Mail.ru