[ Сегодня на трекере фрилич! Идет свободное скачивание без начисления Download ]

BBC: Сокровища Древнего Египта / Treasures of Ancient Egypt [серии 1-3 из 3]

 

Создавать темы 16-Авг-2015 06:33

BBC: Сокровища Древнего Египта / Treasures of Ancient Egypt [серии 1-3 из 3]- Год выпуска: 2014
Страна: Великобритания, BBC Art Production London
Жанр: Документальный, научно-познавательный, история
Продолжительность: 3x ~ 00:51:35
Перевод: Профессиональный ((двухголосый), компания "Видеофильм ТВ"
Режисер: Тим Дунн / Tim Dunn
В ролях: Рассказчик: Алистер Сук / Alastair Sooke-Описание:
В начале XX в. множество египтологов охотились за мумиями и сокровищами в Долине царей. Однако все обнаруженные ими могилы были разграблены еще в древности.
Ещё вавилонские цари утверждали, что "в Египте золота больше, чем песка морского".
Сокровища в гробницах и саркофагах - это не только монеты, а еще и золотые маски, украшения с драгоценными камнями, большие и маленькие статуэтки, кресла из чёрного дерева, инкрустированные золотом, золотые модели колесниц. Всё это богатство, по представлениям египтян, должны были окружать фараона в загробной жизни.
С автором и ведущим сериала Алистером Суком мы познакомимся с культурой и искусством древнего Египта, поразимся технической доблести древних художников, чьи навыки ставят в тупик современных мастеров.-Список серий
01. Рождение искусства / The Birth of Art
02. Золотой век / The Golden Age
03. Новый расцвет / A New Dawn
-Качество: HDTVRip 720p
Контейнер: MKV
Видео кодек: H.264
Аудио кодек: AC3
Видео: 1280x720 25.00fps 3500 Kbps
Аудио: AC3 2ch, 48kHz, 192 kbps
Дополнительная информация: Видеоряд адаптирован для русской аудиодорожки SatRip-

MediaInfo

Format : Matroska
Format version : Version 4 / Version 2
File size : 1.25 GiB
Duration : 51mn 34s
Overall bit rate mode : Constant
Overall bit rate : 3 464 Kbps
Encoded date : UTC 2015-08-01 14:06:19
Writing application : mkvmerge v8.2.0 ('World of Adventure') 64bit
Writing library : libebml v1.3.1 + libmatroska v1.4.2
DURATION : 00:51:34.759000000
NUMBER_OF_FRAMES : 77369
NUMBER_OF_BYTES : 1265111667
_STATISTICS_WRITING_APP : mkvmerge v8.2.0 ('World of Adventure') 64bit
_STATISTICS_WRITING_DATE_UTC : 2015-08-01 14:06:19
_STATISTICS_TAGS : BPS DURATION NUMBER_OF_FRAMES NUMBER_OF_BYTES
Video
ID : 1
Format : AVC
Format/Info : Advanced Video Codec
Format profile : [email protected]
Format settings, CABAC : Yes
Format settings, ReFrames : 3 frames
Codec ID : V_MPEG4/ISO/AVC
Duration : 51mn 34s
Bit rate mode : Constant
Bit rate : 3 203 Kbps
Nominal bit rate : 3 500 Kbps / 3 500 Kbps
Width : 1 280 pixels
Height : 720 pixels
Display aspect ratio : 16:9
Frame rate mode : Constant
Frame rate : 25.000 fps
Standard : NTSC
Color space : YUV
Chroma subsampling : 4:2:0
Bit depth : 8 bits
Scan type : Progressive
Bits/(Pixel*Frame) : 0.139
Stream size : 1.15 GiB (92%)
Writing library : x264 core 114
Encoding settings : cabac=1 / ref=3 / deblock=1:0:0 / analyse=0x3:0x113 / me=hex / subme=7 / psy=1 / psy_rd=1.00:0.00 / mixed_ref=1 / me_range=16 / chroma_me=1 / trellis=1 / 8x8dct=1 / cqm=2 / deadzone=21,11 / fast_pskip=1 / chroma_qp_offset=-2 / threads=6 / sliced_threads=0 / slices=1 / nr=0 / decimate=1 / interlaced=0 / constrained_intra=0 / bframes=3 / b_pyramid=0 / b_adapt=1 / b_bias=0 / direct=1 / weightb=1 / open_gop=0 / weightp=2 / keyint=250 / keyint_min=25 / scenecut=40 / intra_refresh=0 / rc_lookahead=40 / rc=cbr / mbtree=1 / bitrate=3500 / ratetol=1.0 / qcomp=0.60 / qpmin=3 / qpmax=69 / qpstep=4 / vbv_maxrate=3500 / vbv_bufsize=3489 / nal_hrd=cbr / ip_ratio=1.40 / aq=1:1.00
Default : Yes
Forced : No
Color range : Limited
Color primaries : BT.709
Transfer characteristics : BT.709
Matrix coefficients : BT.709
Audio
ID : 2
Format : AC-3
Format/Info : Audio Coding 3
Mode extension : CM (complete main)
Format settings, Endianness : Big
Codec ID : A_AC3
Duration : 51mn 34s
Bit rate mode : Constant
Bit rate : 192 Kbps
Channel(s) : 2 channels
Channel positions : Front: L R
Sampling rate : 48.0 KHz
Compression mode : Lossy
Stream size : 70.8 MiB (6%)
Default : Yes
Forced : No
-Скриншоты--Благодарность за предоставленный рип: -Время раздачи: 24/7 (круглосуточно)
Яндекс.Метрика
Рейтинг@Mail.ru