David Guetta - I Can Only Imagine ft. Chris Brown, Lil Wayne (2012) Master 1080p | 60 fps

 

Создавать темы 15-Авг-2015 08:42

-David Guetta - I Can Only Imagine ft. Chris Brown, Lil Wayne (2012) Master 1080p | 60 fps- -Информация о Клипе
Исполнитель: David Guetta
Название: I Can Only Imagine ft. Chris Brown, Lil Wayne
Год выхода: 2012
Продолжительность: 00:04:10-Файл
Кодек: MPEG4/ISO/AVC/ H.264
Формат: MKV
Качество: Master 1080p
Видео : 1920 x 1000 (1.920) at 59.940 fps 22.7 Мбит/сек
Аудио 1: AC-3 | 640 Кбит/сек | 48.0 KHz | 2.0 channels
Аудио 2: DTS | 1413 Кбит/сек | 48.0 KHz | 2.0 channels

MI

Видео
Идентификатор : 1
Формат : AVC
Формат/Информация : Advanced Video Codec
Профиль формата : [email protected]
Параметр CABAC формата : Да
Параметр ReFrames формата : 3 кадра
Параметр GOP формата : M=4, N=72
Идентификатор кодека : V_MPEG4/ISO/AVC
Продолжительность : 4 м. 9 с.
Битрейт : 22,7 Мбит/сек
Ширина : 1920 пикселей
Высота : 1000 пикселей
Соотношение сторон : 1,920
Режим частоты кадров : Постоянный
Частота кадров : 59,880 кадров/сек
Частота кадров в оригинале : 59,940 кадров/сек
Стандарт вещания : PAL
Цветовое пространство : YUV
Субдискретизация насыщенности : 4:2:0
Битовая глубина : 8 бит
Тип развёртки : Прогрессивная
Бит/(Пиксели*Кадры) : 0.197
Размер потока : 676 Мбайт (90%)
Заголовок : www.60-fps.org
Язык : English
Default : Да
Forced : Нет
Основные цвета : BT.709
Характеристики трансфера : BT.709
Коэффициенты матрицы : BT.709
colour_range : Limited
Аудио #1
Идентификатор : 2
Формат : AC-3
Формат/Информация : Audio Coding 3
Расширение режима : CM (complete main)
Параметр Endianness формата : Big
Идентификатор кодека : A_AC3
Продолжительность : 4 м. 9 с.
Вид битрейта : Постоянный
Битрейт : 640 Кбит/сек
Каналы : 2 канала
Расположение каналов : Front: L R
Частота : 48,0 КГц
Битовая глубина : 16 бит
Метод сжатия : С потерями
Размер потока : 19,1 Мбайт (3%)
Заголовок : AC3
Язык : English
Default : Да
Forced : Нет
DURATION : 00:04:09.760000000
NUMBER_OF_FRAMES : 23415
NUMBER_OF_BYTES : 44113860
_STATISTICS_WRITING_APP : mkvmerge v7.6.0 ('Garden of Dreams') 32bit built on Feb 8 2015 12:51:39
_STATISTICS_WRITING_DATE_UTC : 2015-08-10 08:11:01
_STATISTICS_TAGS : BPS DURATION NUMBER_OF_FRAMES NUMBER_OF_BYTES
Аудио #2
Идентификатор : 3
Формат : DTS
Формат/Информация : Digital Theater Systems
Режим : 16
Параметр Endianness формата : Big
Идентификатор кодека : A_DTS
Продолжительность : 4 м. 9 с.
Вид битрейта : Постоянный
Битрейт : 1413 Кбит/сек
Каналы : 2 канала
Расположение каналов : Front: L R
Частота : 48,0 КГц
Битовая глубина : 16 бит
Метод сжатия : С потерями
Задержка видео : 83 мс.
Размер потока : 42,1 Мбайт (6%)
Заголовок : DTS
Язык : English
Default : Нет
Forced : Нет

Скриншоты:

Яндекс.Метрика
Рейтинг@Mail.ru