[ Сегодня на трекере фрилич! Идет свободное скачивание без начисления Download ]

Ва-банк II, или Ответный удар / Vabank II czyli riposta (Юлиуш Махульский)[1984,комедия, криминал, HDTVRip] от New-Team

 

Создавать темы 15-Дек-2013 02:47

Страна: Польша
Производство: Zespol Filmowy "Kadr"
Жанр: комедия, криминал
Год выпуска: 1984
Продолжительность: 01:37:14
Перевод: Профессиональный (дублированный) (Советский дубляж)
Оригинальная аудиодорожка: нет
Cубтитры: нет
Режиссер: Юлиуш Махульский / Juliusz Machulski
В ролях:
Ян Махульский, Леонард Петрашак, Витольд Пыркош, Бронислав Вроцлавский, Эва Шикульска, Марек Вальчевский, Беата Тышкевич, Яцек Хмельник, Кшиштоф Кершновский, Эльжбета Зайонцувна...
Описание:
Май 1936 года. Мошенник Крамер, получивший 8 лет по обвинению в грабеже собственного банка, который инсценировали Квинто и его друзья, сбегает из тюрьмы. Скрыться он может только в Швейцарии, где у него еще остались немалые деньги.
Но прежде он хочет отомстить своему ненавистному врагу медвежатнику Квинто. Реванш почти удается. Но неистощимый на выдумку Квинто снова проводит блестящую операцию и оставляет Крамера с носом…- -Исходник: HDTV 720p
Тип релиза: HDTVRip
Контейнер: AVI
Видео: 688x384 (16:9), 25 fps, XviD ~ 934 kbps avg, 0.141 bit/pixel
Аудио: 48 kHz, Dolby Digital AC3 2.0, 192 kbps DUB

MediaInfo

Общее
Полное имя : Vabank.II.ili.Otvetnyy.udar.1985.HDTVDRip-745_[New-team]_by_AVP_Studio.avi
Формат : AVI
Формат/Информация : Audio Video Interleave
Размер файла : 745 Мбайт
Продолжительность : 1 ч. 37 м.
Общий поток : 1072 Кбит/сек
Программа кодирования : VirtualDubModRus 1.5.10.2 (build 2542/release)
Библиотека кодирования : VirtualDubMod build 2542/release
Видео
Идентификатор : 0
Формат : MPEG-4 Visual
Профиль формата : Advanced [email protected]
Параметр BVOP формата : 1
Параметр QPel формата : Нет
Параметр GMC формата : Без точки перехода
Параметр матрицы формата : Выборочная
Идентификатор кодека : XVID
Идентификатор кодека/Подсказка : XviD
Продолжительность : 1 ч. 37 м.
Битрейт : 934 Кбит/сек
Ширина : 688 пикселей
Высота : 384 пикселя
Соотношение сторон : 16:9
Частота кадров : 25,000 кадров/сек
Цветовое пространство : YUV
Субдискретизация насыщенности : 4:2:0
Битовая глубина : 8 бит
Тип развёртки : Прогрессивная
Метод сжатия : С потерями
Бит/(Пиксели*Кадры) : 0.141
Размер потока : 649 Мбайт (87%)
Библиотека кодирования : XviD 73
Аудио
Идентификатор : 1
Формат : MPEG Audio
Версия формата : Version 1
Профиль формата : Layer 3
Идентификатор кодека : 55
Идентификатор кодека/Подсказка : MP3
Продолжительность : 1 ч. 37 м.
Вид битрейта : Постоянный
Битрейт : 128 Кбит/сек
Каналы : 2 канала
Частота : 48,0 КГц
Метод сжатия : С потерями
Размер потока : 89,0 Мбайт (12%)
Выравнивание : Соединение по промежуткам
Продолжительность промежутка : 40 мс. (1,00 видеокадр)
Время предзагрузки промежутка : 504 мс.
Библиотека кодирования : LAME3.99r
Настройки программы : -m s -V 4 -q 2 -lowpass 17 -b 128

Скриншоты

Это любопытно

1985 — премия зрителей на Национальном кинофестивале в Гданьске
Яндекс.Метрика
Рейтинг@Mail.ru