[ Сегодня на трекере фрилич! Идет свободное скачивание без начисления Download ]

Nat Geo Wild: Жизнь на Большом Барьерном рифе / Life on the Reef [серии 1-3 из 3]

 

Создавать темы 11-Авг-2015 08:43

Nat Geo Wild: Жизнь на Большом Барьерном рифе / Life on the Reef [серии 1-3 из 3]- Год выпуска: 2014
Страна: США, Northern Pictures, National Geographic Television
Жанр: Документальный, научно-познавательный
Продолжительность: 3x ~ 00:42:43
Перевод: Профессиональный (одноголосый), озвучено на студии "Велес", текст читал Олег Белов
Режисер: Карина Холден / Karina Holden-Описание:
Большой Барьерный Риф у побережья Австралии является крупнейшей в мире живой структурой и одной из самых богатых и самых сложных природных экосистем на Земле. Для некоторых, это место, полное тайн и трудностей, чужой мир, полный странных, прекрасных и смертоносных тварей. Для других он является истинным домом.
В этом документальном мини-сериале мы познакомимся с жизнью тех кто обитает в одном из самых необычных мест на планете, кто хочет защитить и спасти риф: с поисково-спасательными экипажами, учеными и туроператорами, рыбаками, туристами и дайверами, которые посещают эти удивительные места каждый год. Риф охватывает площадь больше, чем в Великобритания, Швейцария и Голландия, вместе взятые, поэтому предстоит гигантская и титаническая работа по его спасению. Циклонная погода, незаконный коммерческий рыболовный промысел, защита находящихся под угрозой исчезновения морских черепах, лишь некоторые из проблем, с которыми сталкиваются защитники природы.
Мы сможем увидеть как 20000 зеленых морских черепах возвращаются в крупнейшую гнездовую колонию на Земле, как размножаются кораллы, гнездятся морские птицы. Узнаем как влияют на экосистему проливные дожди и сильные штормы, как после сезона циклонов риф начинает восстанавливаться и развиваться.
Это голубая грань ... где человек встречается с дикой природой.-Качество: HDRip-AVC 720p
Контейнер: MKV
Видео кодек: H.264
Аудио кодек: AC3
Видео: 1280x720 25fps 3250 Kbps
Аудио: AC3, 2 ch, 192kbps-

MediaInfo

Format : Matroska
Format version : Version 4 / Version 2
File size : 1.05 GiB
Duration : 42mn 42s
Overall bit rate mode : Constant
Overall bit rate : 3 505 Kbps
Encoded date : UTC 2015-08-09 14:12:07
Writing application : mkvmerge v8.2.0 ('World of Adventure') 64bit
Writing library : libebml v1.3.1 + libmatroska v1.4.2
DURATION : 00:42:42.720000000
NUMBER_OF_FRAMES : 64068
NUMBER_OF_BYTES : 1060537893
_STATISTICS_WRITING_APP : mkvmerge v8.2.0 ('World of Adventure') 64bit
_STATISTICS_WRITING_DATE_UTC : 2015-08-09 14:12:07
_STATISTICS_TAGS : BPS DURATION NUMBER_OF_FRAMES NUMBER_OF_BYTES
Video
ID : 1
Format : AVC
Format/Info : Advanced Video Codec
Format profile : [email protected]
Format settings, CABAC : Yes
Format settings, ReFrames : 3 frames
Codec ID : V_MPEG4/ISO/AVC
Duration : 42mn 42s
Bit rate mode : Constant
Bit rate : 3 243 Kbps
Nominal bit rate : 3 500 Kbps / 3 500 Kbps
Width : 1 280 pixels
Height : 720 pixels
Display aspect ratio : 16:9
Frame rate mode : Constant
Frame rate : 25.000 fps
Standard : NTSC
Color space : YUV
Chroma subsampling : 4:2:0
Bit depth : 8 bits
Scan type : Progressive
Bits/(Pixel*Frame) : 0.141
Stream size : 991 MiB (93%)
Writing library : x264 core 114
Encoding settings : cabac=1 / ref=3 / deblock=1:0:0 / analyse=0x3:0x113 / me=hex / subme=7 / psy=1 / psy_rd=1.00:0.00 / mixed_ref=1 / me_range=16 / chroma_me=1 / trellis=1 / 8x8dct=1 / cqm=2 / deadzone=21,11 / fast_pskip=1 / chroma_qp_offset=-2 / threads=6 / sliced_threads=0 / slices=1 / nr=0 / decimate=1 / interlaced=0 / constrained_intra=0 / bframes=3 / b_pyramid=0 / b_adapt=1 / b_bias=0 / direct=1 / weightb=1 / open_gop=0 / weightp=2 / keyint=250 / keyint_min=25 / scenecut=40 / intra_refresh=0 / rc_lookahead=40 / rc=cbr / mbtree=1 / bitrate=3500 / ratetol=1.0 / qcomp=0.60 / qpmin=3 / qpmax=69 / qpstep=4 / vbv_maxrate=3500 / vbv_bufsize=3489 / nal_hrd=cbr / ip_ratio=1.40 / aq=1:1.00
Default : Yes
Forced : No
Color range : Limited
Color primaries : BT.709
Transfer characteristics : BT.709
Matrix coefficients : BT.709
Audio
ID : 2
Format : AC-3
Format/Info : Audio Coding 3
Mode extension : CM (complete main)
Format settings, Endianness : Big
Codec ID : A_AC3
Duration : 42mn 42s
Bit rate mode : Constant
Bit rate : 192 Kbps
Channel(s) : 2 channels
Channel positions : Front: L R
Sampling rate : 48.0 KHz
Compression mode : Lossy
Stream size : 58.7 MiB (5%)
Default : Yes
Forced : No
-Скриншоты--Благодарность за предоставленный рип: -Время раздачи: 24/7 (круглосуточно)
Яндекс.Метрика
Рейтинг@Mail.ru