[ Сегодня на трекере фрилич! Идет свободное скачивание без начисления Download ]

Хоаниб — секреты пустынных слонов / Secrets of The Desert Elephants (Томас Беренд, Рози Кох [/b][/color]\\ Thomas Behrend, Rosie Koch) [2013, Документальный, HDTVRip 720p]

 

Создавать темы 02-Авг-2015 08:00

Хоаниб — секреты пустынных слонов / Secrets of The Desert Elephants (Томас Беренд, Рози Кох \\ Thomas Behrend, Rosie Koch) [2013, Документальный, HDTVRip 720p]
Год выпуска: 2013
Страна: Германия
Жанр: Документальный
Продолжительность: 00:43:58
Перевод: 00:43:58
Доп. инфо о переводе: Студия "Велес"
Режиссер: Томас Беренд, Рози Кох \ Thomas Behrend, Rosie Koch
Описание:
Намиб — одна из наиболее суровых пустынь на планете, но некоторые животные, например, слоны, научились там выживать.
Качество: HDTVRip 720p
Контейнер: MKV
Видео: MPEG-4 AVC (H.264), 1280x720 (16:9), 4800 Kbps, 25 fps, 0.208 bit\pixel
Аудио RUS: MP2, 192 Кбит/с, 48 kHz, 2 ch
Аудио ENG: MP2, 192 Кбит/с, 48 kHz, 2 ch

MediaInfo

GeneralUnique ID : 199444527622802590451917030008910035705 (0x960B9E69A1631865BAB832E60560BAF9)Complete name : D:\Видео\Флора и фауна\Secrets of the Desert Elephantes HDTVRip-720p.2013.mkvFormat : MatroskaFormat version : Version 4 / Version 2File size : 1.59 GiBDuration : 43mn 57sOverall bit rate : 5 186 KbpsEncoded date : UTC 2015-07-28 13:44:44Writing application : mkvmerge v8.1.0 ('Psychedelic Postcard') 64bitWriting library : libebml v1.3.1 + libmatroska v1.4.2DURATION : 00:43:47.712000000NUMBER_OF_FRAMES : 109488NUMBER_OF_BYTES : 63065088_STATISTICS_WRITING_APP : mkvmerge v8.1.0 ('Psychedelic Postcard') 64bit_STATISTICS_WRITING_DATE_UTC : 2015-07-28 13:44:44_STATISTICS_TAGS : BPS DURATION NUMBER_OF_FRAMES NUMBER_OF_BYTES
VideoID : 1Format : AVCFormat/Info : Advanced Video CodecFormat profile : [email protected] settings, CABAC : YesFormat settings, ReFrames : 7 framesCodec ID : V_MPEG4/ISO/AVCDuration : 43mn 57sBit rate : 4 800 KbpsWidth : 1 280 pixelsHeight : 720 pixelsDisplay aspect ratio : 16:9Frame rate mode : ConstantFrame rate : 25.000 fpsColor space : YUVChroma subsampling : 4:2:0Bit depth : 8 bitsScan type : ProgressiveBits/(Pixel*Frame) : 0.208Stream size : 1.44 GiB (91%)Title : HDTVRip by VicmanWriting library : x264 core 146 r2538 121396cEncoding settings : cabac=1 / ref=7 / deblock=1:0:0 / analyse=0x3:0x111 / me=umh / subme=9 / psy=1 / psy_rd=1.05:0.15 / mixed_ref=1 / me_range=32 / chroma_me=1 / trellis=2 / 8x8dct=1 / cqm=0 / deadzone=21,11 / fast_pskip=1 / chroma_qp_offset=-3 / threads=6 / lookahead_threads=1 / sliced_threads=0 / nr=0 / decimate=1 / interlaced=0 / bluray_compat=0 / constrained_intra=0 / bframes=9 / b_pyramid=2 / b_adapt=2 / b_bias=0 / direct=3 / weightb=1 / open_gop=0 / weightp=2 / keyint=250 / keyint_min=25 / scenecut=40 / intra_refresh=0 / rc_lookahead=60 / rc=2pass / mbtree=1 / bitrate=4800 / ratetol=1.0 / qcomp=0.60 / qpmin=0 / qpmax=69 / qpstep=4 / cplxblur=20.0 / qblur=0.5 / ip_ratio=1.40 / aq=2:1.00Default : YesForced : No
Audio #1ID : 2Format : MPEG AudioFormat version : Version 1Format profile : Layer 2Codec ID : A_MPEG/L2Codec ID/Hint : MP2Duration : 43mn 57sBit rate mode : ConstantBit rate : 192 KbpsChannel(s) : 2 channelsSampling rate : 48.0 KHzCompression mode : LossyStream size : 60.4 MiB (4%)Title : Студия "Велес"Language : RussianDefault : YesForced : No
Audio #2ID : 3Format : MPEG AudioFormat version : Version 1Format profile : Layer 2Codec ID : A_MPEG/L2Codec ID/Hint : MP2Duration : 43mn 57sBit rate mode : ConstantBit rate : 192 KbpsChannel(s) : 2 channelsSampling rate : 48.0 KHzCompression mode : LossyStream size : 60.4 MiB (4%)Title : OriginalLanguage : EnglishDefault : NoForced : No
Скриншоты-
Яндекс.Метрика
Рейтинг@Mail.ru