Роботы / Robots (2005) [H.264/720p] [hand made 60fps]

 

Создавать темы 03-Июл-2015 09:42

Роботы / Robots (2005) [H.264/720p] [hand made 60fps]- Производство: США / Twentieth Century Fox Animation
Жанр: Фантастика, Комедия, Приключения, Семейный, Мультфильм
Режиссер: Крис Уэдж, Карлос Салдана
Персонажи: Паула Абдул, Холли Берри, Люсиль Блисс, Терри Брэдшоу, Джим Броудбент, Мел Брукс, Аманда Байнс, Дрю Кэри, Дженнифер Кулидж, Дилан Дентон, Уилл Дентон, Маршалл Эфрон, Дэмиен Фэйхи, Лауэлл Ганц, Пол Джаматти, Дэн Хедайя, Джеки Хоффман, Джеймс Эрл Джонс, Грег Киннер, Джей Лено, Наташа Лионни, Брайан МакФедден, Эван МакГрегор, Тим Нордквист, Джэнсен Панеттьер, Эл Рокер, Алан Розенберг, Стивен Тоболовски, Стэнли Туччи, Крис Уэдж, Дайэнн Уист, Харланд Уильямс, Робин Уильямс, Кроуфорд Уилсон
Описание:
Действие фильма разворачивается в мире, населенном исключительно роботами. Как и в мире людей у них есть своя социальная лестница, свои герои и изгои. Молодой гений Родни мечтает сделать мир роботов лучше. А еще ему очень нравится одна молоденькая сексапильная роботша Каппи. Но на пути всех его планов стоит ведущий дизайнер роботов Биг Велд, принадлежащий к тому же сословию, что и Каппи…

Продолжительность: 01:29:47
Качество видео: BDRip 720p (исходник Blu-ray Disc)
Перевод: Дублированный
Вид субтитров: Русские Полные, Английские Полные
Форсированные субтитры: Нет
Чаптеры (Главы): Есть
Видео: AVC/H.264, ~9065 kbps, 1280x696 (1:85:1), 59.940 fps, [email protected], 0.170 bit/px*fr
Аудио 1: AC-3, 448 Кбит/сек, 6 канала(ов), 48,0 КГц - Дублированный / Русский
Аудио 2: AC-3, 448 Кбит/сек, 6 канала(ов), 48,0 КГц - Оригинал / Английский

Доп.Информация:

Общее
Полное имя                               : G:\Robots - 2005 BDRip [720p] [hand made 60fps].mkv
Формат                                   : Matroska
Версия формата                           : Version 2
Размер файла                             : 6,25 Гбайт
Продолжительность                        : 1 ч. 29 м.
Общий поток                              : 9965 Кбит/сек
Дата кодирования                         : UTC 2014-04-10 17:26:20
Программа кодирования                    : mkvmerge v5.8.0 ('No Sleep / Pillow') built on Sep  2 2012 15:37:04
Библиотека кодирования                   : libebml v1.2.3 + libmatroska v1.3.0
Видео
Идентификатор                            : 1
Формат                                   : AVC
Формат/Информация                        : Advanced Video Codec
Профиль формата                          : [email protected]
Параметр CABAC формата                   : Да
Параметр ReFrames формата                : 9 кадров
Идентификатор кодека                     : V_MPEG4/ISO/AVC
Продолжительность                        : 1 ч. 29 м.
Битрейт                                  : 9065 Кбит/сек
Ширина                                   : 1280 пикселей
Высота                                   : 696 пикселей
Соотношение сторон                       : 1,85:1
Режим частоты кадров                     : Постоянный
Частота кадров                           : 59,880 кадров/сек
Частота кадров в оригинале               : 59,940 кадров/сек
Цветовое пространство                    : YUV
Субдискретизация насыщенности            : 4:2:0
Битовая глубина                          : 8 бит
Тип развёртки                            : Прогрессивная
Бит/(Пиксели*Кадры)                      : 0.170
Размер потока                            : 5,56 Гбайт (89%)
Заголовок                                : Роботы (2005) [720p] [60fps]
Библиотека кодирования                   : x264 core 130 r2273 b3065e6
Настройки программы                      : cabac=1 / ref=9 / deblock=1:0:0 / analyse=0x3:0x133 / me=umh / subme=11 / psy=1 / psy_rd=1.00:0.10 / mixed_ref=1 / me_range=32 / chroma_me=1 / trellis=2 / 8x8dct=1 / cqm=0 / deadzone=21,11 / fast_pskip=0 / chroma_qp_offset=-3 / threads=12 / lookahead_threads=1 / sliced_threads=0 / nr=0 / decimate=1 / interlaced=0 / bluray_compat=0 / constrained_intra=0 / bframes=6 / b_pyramid=2 / b_adapt=2 / b_bias=0 / direct=3 / weightb=1 / open_gop=0 / weightp=2 / keyint=250 / keyint_min=25 / scenecut=40 / intra_refresh=0 / rc=2pass / mbtree=0 / bitrate=9065 / ratetol=1.0 / qcomp=0.60 / qpmin=0 / qpmax=69 / qpstep=4 / cplxblur=20.0 / qblur=0.5 / ip_ratio=1.40 / pb_ratio=1.30 / aq=2:0.90
Язык                                     : English
Default                                  : Да
Forced                                   : Нет
Аудио #1
Идентификатор                            : 2
Формат                                   : AC-3
Формат/Информация                        : Audio Coding 3
Расширение режима                        : CM (complete main)
Параметр Endianness формата              : Big
Идентификатор кодека                     : A_AC3
Продолжительность                        : 1 ч. 29 м.
Вид битрейта                             : Постоянный
Битрейт                                  : 448 Кбит/сек
Каналы                                   : 6 каналов
Расположение каналов                     : Front: L C R, Side: L R, LFE
Частота                                  : 48,0 КГц
Метод сжатия                             : С потерями
Размер потока                            : 288 Мбайт (4%)
Заголовок                                : Dub
Язык                                     : Russian
Default                                  : Да
Forced                                   : Нет
Аудио #2
Идентификатор                            : 3
Формат                                   : AC-3
Формат/Информация                        : Audio Coding 3
Расширение режима                        : CM (complete main)
Параметр Endianness формата              : Big
Идентификатор кодека                     : A_AC3
Продолжительность                        : 1 ч. 29 м.
Вид битрейта                             : Постоянный
Битрейт                                  : 448 Кбит/сек
Каналы                                   : 6 каналов
Расположение каналов                     : Front: L C R, Side: L R, LFE
Частота                                  : 48,0 КГц
Метод сжатия                             : С потерями
Размер потока                            : 288 Мбайт (4%)
Заголовок                                : Eng
Язык                                     : English
Default                                  : Нет
Forced                                   : Нет
Текст #1
Идентификатор                            : 4
Формат                                   : UTF-8
Идентификатор кодека                     : S_TEXT/UTF8
Идентификатор кодека/Информация          : UTF-8 Plain Text
Заголовок                                : full
Язык                                     : Russian
Default                                  : Нет
Forced                                   : Нет
Текст #2
Идентификатор                            : 5
Формат                                   : UTF-8
Идентификатор кодека                     : S_TEXT/UTF8
Идентификатор кодека/Информация          : UTF-8 Plain Text
Заголовок                                : full
Язык                                     : English
Default                                  : Нет
Forced                                   : Нет
Меню
00:00:00.000                             : :Chapter 01
00:05:00.000                             : :Chapter 02
00:10:00.000                             : :Chapter 03
00:15:00.000                             : :Chapter 04
00:20:00.000                             : :Chapter 05
00:25:00.000                             : :Chapter 06
00:30:00.000                             : :Chapter 07
00:35:00.000                             : :Chapter 08
00:40:00.000                             : :Chapter 09
00:45:00.000                             : :Chapter 10
00:50:00.000                             : :Chapter 11
00:55:00.000                             : :Chapter 12
01:00:00.000                             : :Chapter 13
01:05:00.000                             : :Chapter 14
01:10:00.000                             : :Chapter 15
01:15:00.000                             : :Chapter 16
01:20:00.000                             : :Chapter 17
01:25:00.000                             : :Chapter 18

Скриншоты:

Яндекс.Метрика
Рейтинг@Mail.ru