BBC: Может ли питание насекомыми спасти мир? / BBC: Can Eating Insects Save the World? (2013)[документальный HDTVRip] от R.G.RealMT | P2

 

Создавать темы 07-Дек-2013 13:03

Год выпуска: 2013
Страна: Великобритания
Студия: BBC
Жанр: документальный
Продолжительность: 00:58:59
Перевод: Профессиональный (двухголосый закадровый) - студия "Лексикон"
Режиссер: Кари Лиа
В ролях: Стефан Гейтц
Описание: Древние храмы Ангкор-Ват, Камбоджа. Это место кишит насекомыми, но то, на что западные жители не могут смотреть без отвращения, является обедом для многих жителей этого региона. На каждого человека на Земле приходится по 40 тонн насекомых. Может быть, западная цивилизация недооценивает эту кладезь возобновляемых ресурсов? Что же съедобно, а что нет? В этих местах , чтобы получить тарелку насекомых , дети порой рискуют жизнью. Могут ли эти крошечные создания помочь выжить человечеству? Спасут ли насекомые мир от голода? Когда-нибудь мы будем вспоминать 21 век, как настоящий век пищевого изобилия, который мы не ценили и не берегли. Насекомые полезны и совершенно безвредны для окружающей среды. Если мы сможем преодолеть свой страх и побороть незнание, то вероятно поедание насекомых в будущем спасет мир от голода.
Качество: HDTVRip
Формат:AVI
Видео кодек: XviD
Аудио кодек: AC-3
Видео: 16:9, 2000 Кбит/сек, 720x400, 25,000 кадров/сек
Аудио: AC-3, 2 канала, 128 Кбит/сек, 48,0 КГц

MediaInfo

Общее
Полное имя : D:BBC.Can.Eating.Insects.Save.the.World.HDTV.[R.G.RealMT].avi
Формат : AVI
Формат/Информация : Audio Video Interleave
Размер файла : 902 Мбайт
Продолжительность : 58 м.
Общий поток : 2137 Кбит/сек
Программа кодирования : VirtualDubMod 1.5.10.3 | www.virtualdub-fr.org || (build 2550/release)
Библиотека кодирования : VirtualDubMod build 2550/release
Видео
Идентификатор : 0
Формат : MPEG-4 Visual
Профиль формата : Advanced [email protected]
Параметр BVOP формата : 2
Параметр QPel формата : Нет
Параметр GMC формата : Без точки перехода
Параметр матрицы формата : Default (H.263)
Режим смешивания : Сжатый битовый поток
Идентификатор кодека : XVID
Идентификатор кодека/Подсказка : XviD
Продолжительность : 58 м.
Битрейт : 2000 Кбит/сек
Ширина : 720 пикселей
Высота : 400 пикселей
Соотношение сторон : 16:9
Частота кадров : 25,000 кадров/сек
Цветовое пространство : YUV
Субдискретизация насыщенности : 4:2:0
Битовая глубина : 8 бит
Тип развёртки : Прогрессивная
Метод сжатия : С потерями
Бит/(Пиксели*Кадры) : 0.278
Размер потока : 844 Мбайт (94%)
Библиотека кодирования : XviD 1.2.1 (UTC 2008-12-04)
Аудио
Идентификатор : 1
Формат : AC-3
Формат/Информация : Audio Coding 3
Расширение режима : CM (complete main)
Параметр Endianness формата : Big
Идентификатор кодека : 2000
Продолжительность : 58 м.
Вид битрейта : Постоянный
Битрейт : 128 Кбит/сек
Каналы : 2 канала
Расположение каналов : Front: L R
Частота : 48,0 КГц
Битовая глубина : 16 бит
Метод сжатия : С потерями
Размер потока : 54,0 Мбайт (6%)
Выравнивание : Разделение по промежуткам
Продолжительность промежутка : 40 мс. (1,00 видеокадр)
Время предзагрузки промежутка : 500 мс.

Скриншоты

Яндекс.Метрика
Рейтинг@Mail.ru