The Black Eyed Peas - Let's Get It Started (2003) WEBRip | 60FPS

 

Создавать темы 04-Июн-2015 22:26

Исполнитель: The Black Eyed Peas
Название: Let's Get It Started
Год выхода: 2003
Продолжительность: 00:03:49--Кодек: AVC
Формат: MKV
Качество: WEBRip
Видео: 864x464, 59.940 fps, 3518 kb/s
Аудио: MPEG Audio 245 Kbps, 2 channels, 48.0 KHz

MediaInfo

General
Unique ID : 239367898489243097899145578475481371288 (0xB414949154470DB0B118B099CFCE9298)
Complete name : J:\60FPS\The Black Eyed Peas - Let's Get It Started\The Black Eyed Peas - Let's Get It Started.mkv
Format : Matroska
Format version : Version 4 / Version 2
File size : 105 MiB
Duration : 3mn 49s
Overall bit rate mode : Variable
Overall bit rate : 3 832 Kbps
Encoded date : UTC 2015-06-03 17:12:21
Writing application : mkvmerge v7.5.0 ('Glass Culture') 64bit built on Jan 4 2015 16:48:44
Writing library : libebml v1.3.1 + libmatroska v1.4.2
DURATION : 00:03:46.056000000
NUMBER_OF_FRAMES : 9419
NUMBER_OF_BYTES : 6920256
_STATISTICS_WRITING_APP : mkvmerge v7.5.0 ('Glass Culture') 64bit built on Jan 4 2015 16:48:44
_STATISTICS_WRITING_DATE_UT : 2015-06-03 17:12:21
_STATISTICS_TAGS : BPS DURATION NUMBER_OF_FRAMES NUMBER_OF_BYTES
Video
ID : 1
Format : AVC
Format/Info : Advanced Video Codec
Format profile : [email protected]
Format settings, CABAC : Yes
Format settings, ReFrames : 9 frames
Codec ID : V_MPEG4/ISO/AVC
Duration : 3mn 49s
Bit rate : 3 511 Kbps
Width : 864 pixels
Height : 464 pixels
Display aspect ratio : 1.85:1
Frame rate mode : Constant
Frame rate : 59.880 fps
Original frame rate : 59.940 fps
Color space : YUV
Chroma subsampling : 4:2:0
Bit depth : 8 bits
Scan type : Progressive
Bits/(Pixel*Frame) : 0.146
Stream size : 96.0 MiB (92%)
Writing library : x264 core 144 r2525 40bb568
Encoding settings : cabac=1 / ref=9 / deblock=1:0:0 / analyse=0x1:0x110 / me=tesa / subme=9 / psy=1 / psy_rd=1.00:0.00 / mixed_ref=0 / me_range=64 / chroma_me=1 / trellis=2 / 8x8dct=0 / cqm=0 / deadzone=21,11 / fast_pskip=1 / chroma_qp_offset=-2 / threads=12 / lookahead_threads=2 / sliced_threads=0 / nr=0 / decimate=1 / interlaced=0 / bluray_compat=0 / constrained_intra=0 / bframes=7 / b_pyramid=2 / b_adapt=2 / b_bias=0 / direct=3 / weightb=1 / open_gop=0 / weightp=2 / keyint=250 / keyint_min=25 / scenecut=40 / intra_refresh=0 / rc=crf / mbtree=0 / crf=17.0 / qcomp=0.60 / qpmin=0 / qpmax=69 / qpstep=4 / ip_ratio=1.40 / pb_ratio=1.30 / aq=1:1.00
Language : English
Default : Yes
Forced : No
DURATION : 00:03:49.446000000
NUMBER_OF_FRAMES : 13753
NUMBER_OF_BYTES : 102861589
_STATISTICS_WRITING_APP : mkvmerge v7.5.0 ('Glass Culture') 64bit built on Jan 4 2015 16:48:44
_STATISTICS_WRITING_DATE_UT : 2015-06-03 17:12:21
_STATISTICS_TAGS : BPS DURATION NUMBER_OF_FRAMES NUMBER_OF_BYTES
Audio
ID : 2
Format : MPEG Audio
Format version : Version 1
Format profile : Layer 3
Mode : Joint stereo
Mode extension : MS Stereo
Codec ID : A_MPEG/L3
Codec ID/Hint : MP3
Duration : 3mn 46s
Bit rate mode : Variable
Bit rate : 245 Kbps
Channel(s) : 2 channels
Sampling rate : 48.0 KHz
Compression mode : Lossy
Delay relative to video : 2s 130ms
Stream size : 6.60 MiB (6%)
Writing library : LAME3.97
Encoding settings : -m j -V 4 -q 2 -lowpass 19.7 --abr
Default : Yes
Forced : No

Скриншоты

Яндекс.Метрика
Рейтинг@Mail.ru