Шулер / Одесса-мама [01-10 из 10] (2013,Криминал, драма) WEB-DLRip | КПК

 

Создавать темы 27-Май-2015 15:12

-Шулер / Одесса-мама [01-10 из 10] (2013) WEB-DLRip-Информация о фильме
Оригинальное название: Шулер / Одесса-мама
Год выхода: 2013
Жанр: Криминал, драма
Режиссер: Эдуард Парри--В ролях: Антон Феоктистов, Ольга Лерман, Сергей Сосновский, Алексей Ведерников (II), Алексей Горбунов, Сергей Алимпиев, Кирилл Козаков, Екатерина Волкова, Юлия Галкина, Владимир Карпов (III), Александр Робак, Павел Трубинер, Александр Савенков, Алексей Смолка, Вадим Цаллати...--О фильме:
Дело происходит в Одессе в 1980 год. У Костика Волошина большие планы, он хочет удрать за кордон. У него двойная жизнь – должность научного сотрудника НИИ лишь прикрытие для шулерской деятельности, в которой Костик абсолютный профи. Спасаясь от карточника Гоги, которому он задолжал большую сумму денег, Костик едет в Одессу, откуда сам родом. Ему нужно заработать денег чтобы уехать из страны. Все аферы наш герой проворачивает под прикрытием Балабана, который крышует всю Одессу. Однако лучший друг и покровитель Балабан становится врагом номер один, когда Костик узнает, что именно он причастен к гибели его отца. А теперь Балабан еще и намерен выжить Костика из города, ведь у них на пути вставала одна девушка по имени Майя. Костик решает заставить Балабана заплатить за смерть своего отца.-- --Страна: Россия, Украина
Студия: "Star Media"
Продолжительность: 10 х ~00:51:00
Перевод: Не требуется--Файл
Формат: MP4
Качество: WEB-DLRip | КПК
Видео: MPEG-4 AVC (x264), 640x360, ~500 kbps, 25.000 fps
Аудио: AAC LC, 44.1 KHz, 2 ch, 128 Kbps
Субтитры: Нет

MI

Complete name : E:KinoShuler.2013.AVC.WEB-DLRip.KPK.GeneralfilmShuler.e03.2013.AVC.WEB-DLRip.KPK.Generalfilm.mp4
Format : MPEG-4
Format profile : Base Media
Codec ID : isom
File size : 235 MiB
Duration : 52mn 13s
Overall bit rate mode : Variable
Overall bit rate : 630 Kbps
Encoded date : UTC 2013-11-24 15:36:23
Tagged date : UTC 2013-11-24 15:36:23
Video
ID : 1
Format : AVC
Format/Info : Advanced Video Codec
Format profile : [email protected]
Format settings, CABAC : No
Format settings, ReFrames : 6 frames
Codec ID : avc1
Codec ID/Info : Advanced Video Coding
Duration : 52mn 13s
Bit rate : 500 Kbps
Maximum bit rate : 2 772 Kbps
Width : 640 pixels
Height : 360 pixels
Display aspect ratio : 16:9
Frame rate mode : Constant
Frame rate : 25.000 fps
Color space : YUV
Chroma subsampling : 4:2:0
Bit depth : 8 bits
Scan type : Progressive
Bits/(Pixel*Frame) : 0.087
Stream size : 187 MiB (79%)
Writing library : x264 core 125 r2200 999b753
Encoding settings : cabac=0 / ref=6 / deblock=1:-1:-1 / analyse=0x1:0x111 / me=umh / subme=7 / psy=1 / psy_rd=1.00:0.00 / mixed_ref=0 / me_range=16 / chroma_me=1 / trellis=1 / 8x8dct=0 / cqm=0 / deadzone=21,11 / fast_pskip=0 / chroma_qp_offset=-2 / threads=12 / lookahead_threads=2 / sliced_threads=0 / nr=0 / decimate=1 / interlaced=0 / bluray_compat=0 / constrained_intra=0 / bframes=0 / weightp=0 / keyint=250 / keyint_min=25 / scenecut=40 / intra_refresh=0 / rc_lookahead=60 / rc=2pass / mbtree=1 / bitrate=500 / ratetol=1.0 / qcomp=0.60 / qpmin=0 / qpmax=69 / qpstep=4 / cplxblur=20.0 / qblur=0.5 / ip_ratio=1.40 / aq=1:1.00
Encoded date : UTC 2013-11-24 15:36:23
Tagged date : UTC 2013-11-24 15:36:28
Audio
ID : 2
Format : AAC
Format/Info : Advanced Audio Codec
Format profile : LC
Codec ID : 40
Duration : 52mn 13s
Bit rate mode : Variable
Bit rate : 128 Kbps
Maximum bit rate : 148 Kbps
Channel count : 2 channels
Channel positions : Front: L R
Sampling rate : 44.1 KHz
Compression mode : Lossy
Stream size : 47.8 MiB (20%)
Encoded date : UTC 2013-11-24 15:36:27
Tagged date : UTC 2013-11-24 15:36:28

Скриншоты:

Яндекс.Метрика
Рейтинг@Mail.ru