NG: Суперсооружения: Подвесной мост над Гранд-Каньоном / Megastructures: Grand Canyon SkyWalk [2009 г., Документальный, научно-познавательный, техника, HDTVRip]

 

Создавать темы 05-Окт-2013 11:50

NG: Суперсооружения: Подвесной мост над Гранд-Каньоном / Megastructures: Grand Canyon SkyWalk
Год выпуска: 2009 г.
Страна: США, National Geographic Channel
Жанр: Документальный, научно-познавательный, техника, строительство
Продолжительность: 00:47:33
Перевод: Авторский (одноголосый закадровый)
Cубтитры: нет
Описание: 20 марта 2007 года произошло долгожданное открытие оригинального сооружения – стеклянного моста Grand Canyon SkyWalk. Этот мост, сделанный в виде подковы, возвышается над Гранд-Каньоном более чем на 1 км. Панорама, открывающаяся с этого моста, дает возможность увидеть это творение природы во всей его красе.Разработчики, которые занимались строительством моста, утверждают, что он рассчитан на груз весом 36,5 000 тонн. К тому же, стеклянное сооружение устойчиво к землетрясению в 8 баллов и к ветру со скоростью 160 км/ч. В ширину Skywalk достигает 3 м, в длину – 42 м, а его стены – 1,5 м. Для строительства моста использовалось стекло немецкой компании Saint-Gobain Glass. Этот материал был отправлен из Германии по океану. Авторами проекта Skywalk являются MRJ Architects, Lochsa Engineering и APCO Construction. Первыми на экскурсию по мосту, который не менее популярен, чем Мемориал на горе Рашмор, отправились представители индейского племени Уалапай, сотрудники СМИ, а также астронавт Баз Алдрин. Skywalk был торжественно благословлен старейшиной индейцев Эмметтом Бендером. Множество туристов будет приезжать сюда, чтобы прогуляться по необычному мосту. Такие экскурсии будут очень прибыльны для региона.
Качество видео: HDTVRip
Формат видео: AVI
Видео кодек: XviD
Аудио кодек: AC3
Видео: 720х400 25.00fps 1800kbps
Аудио: AC3 2ch, 48kHz, 192 kbps

Скриншоты


"MediaInfo:"
ormat : AVI
Format/Info : Audio Video Interleave
File size : 681 MiB
Duration : 47mn 32s
Overall bit rate : 2 002 Kbps
Writing application : VirtualDubMod 1.5.10.3 | www.virtualdub-fr.org || (build 2550/release)
Writing library : VirtualDubMod build 2550/release
Video
ID : 0
Format : MPEG-4 Visual
Format profile : Advanced [email protected]
Format settings, BVOP : Yes
Format settings, QPel : No
Format settings, GMC : No warppoints
Format settings, Matrix : Default (H.263)
Codec ID : XVID
Codec ID/Hint : XviD
Duration : 47mn 32s
Bit rate : 1 800 Kbps
Width : 720 pixels
Height : 400 pixels
Display aspect ratio : 16:9
Frame rate : 25.000 fps
Color space : YUV
Chroma subsampling : 4:2:0
Bit depth : 8 bits
Scan type : Progressive
Compression mode : Lossy
Bits/(Pixel*Frame) : 0.250
Stream size : 612 MiB (90%)
Writing library : XviD 1.2.1 (UTC 2008-12-04)
Audio
ID : 1
Format : AC-3
Format/Info : Audio Coding 3
Mode extension : CM (complete main)
Format settings, Endianness : Big
Codec ID : 2000
Duration : 47mn 32s
Bit rate mode : Constant
Bit rate : 192 Kbps
Channel(s) : 2 channels
Channel positions : Front: L R
Sampling rate : 48.0 KHz
Bit depth : 16 bits
Compression mode : Lossy
Stream size : 65.3 MiB (10%)
Alignment : Split accross interleaves
Interleave, duration : 40 ms (1.00 video frame)
Interleave, preload duration : 500 ms
Яндекс.Метрика
Рейтинг@Mail.ru