[ Сегодня на трекере фрилич! Идет свободное скачивание без начисления Download ]

Торжественный концерт ко Дню Победы [2015, Pop, HDTV 1080i]

 

Создавать темы 10-Май-2015 00:38

Торжественный концерт ко Дню Победы
Жанр: Pop
Продолжительность: 01:35:27
Год выпуска: 2015
Описание: Торжественный концерт ко Дню Победы. Праздничный концерт в честь 70-летия Великой Победы. Прямая трансляция с Красной площади! Торжественный концерт, посвященный 70-й годовщине победы в Великой Отечественной войне. Специально ко Дню Победы Первый канал показал праздничный концерт. Лучшие исполнители собрались на одной сцене, чтобы поздравить и поблагодарить тех, кто, не жалея жизни, шел в бой за родину. Великая Отечественная война – это неотъемлемая часть жизни и истории каждого из нас. Нет такой семьи, которую бы она не коснулась. Наши отцы, деды и прадеды сделали все для того, чтобы сегодня мы смогли жить под мирным небом. Наш долг – хранить память.
Источник: собственный рип
Доп. информация: Релиз -
-Рип чистый. Без посторонних надписей. Выкладывается как есть.
Качество: HDTV 1080i
Контейнер: TS
Видео кодек: AVC
Аудио кодек: MP2, AC3
Видео: 1920x1080 (16:9) 25.000 fps ~ 12.2 Mbpss, 0.235 bit/pixel
Аудио 1: MPEG Audio 48000Hz stereo 192 Кбит/сек
Аудио 2: AC3, 6 channels, 48000Hz, 384 Кбит/сек

Скриншоты

MI

General
ID                                       : 1 (0x1)
Complete name                            : J:\Победа\Торжественный концерт ко Дню Победы (2015, Pop, HDTV 1080i) (MYDIMKA).ts
Format                                   : MPEG-TS
File size                                : 8.78 GiB
Duration                                 : 1h 35mn
Overall bit rate mode                    : Variable
Overall bit rate                         : 13.2 Mbps
Video
ID                                       : 1902 (0x76E)
Menu ID                                  : 92 (0x5C)
Format                                   : AVC
Format/Info                              : Advanced Video Codec
Format profile                           : [email protected]
Format settings, CABAC                   : Yes
Format settings, ReFrames                : 3 frames
Codec ID                                 : 27
Duration                                 : 1h 35mn
Bit rate                                 : 11.9 Mbps
Width                                    : 1 920 pixels
Height                                   : 1 080 pixels
Display aspect ratio                     : 16:9
Frame rate                               : 25.000 fps
Standard                                 : Component
Color space                              : YUV
Chroma subsampling                       : 4:2:0
Bit depth                                : 8 bits
Scan type                                : Interlaced
Scan order                               : Top Field First
Bits/(Pixel*Frame)                       : 0.230
Stream size                              : 7.93 GiB (90%)
Color primaries                          : BT.709
Transfer characteristics                 : BT.709
Matrix coefficients                      : BT.709
Audio #1
ID                                       : 2902 (0xB56)
Menu ID                                  : 92 (0x5C)
Format                                   : AC-3
Format/Info                              : Audio Coding 3
Mode extension                           : CM (complete main)
Format settings, Endianness              : Big
Codec ID                                 : 6
Duration                                 : 1h 35mn
Bit rate mode                            : Constant
Bit rate                                 : 384 Kbps
Channel(s)                               : 6 channels
Channel positions                        : Front: L C R, Side: L R, LFE
Sampling rate                            : 48.0 KHz
Bit depth                                : 16 bits
Compression mode                         : Lossy
Delay relative to video                  : -120ms
Stream size                              : 262 MiB (3%)
Language                                 : Russian
Audio #2
ID                                       : 2903 (0xB57)
Menu ID                                  : 92 (0x5C)
Format                                   : MPEG Audio
Format version                           : Version 1
Format profile                           : Layer 2
Codec ID                                 : 3
Duration                                 : 1h 35mn
Bit rate mode                            : Constant
Bit rate                                 : 224 Kbps
Channel(s)                               : 2 channels
Sampling rate                            : 48.0 KHz
Compression mode                         : Lossy
Delay relative to video                  : -120ms
Stream size                              : 153 MiB (2%)
Language                                 : Russian
Text
ID                                       : 2904 (0xB58)-888
Menu ID                                  : 92 (0x5C)
Format                                   : Teletext Subtitle
Language                                 : Russian
Menu
ID                                       : 902 (0x386)
Menu ID                                  : 92 (0x5C)
Duration                                 : 1h 35mn
List                                     : 1902 (0x76E) (AVC) / 2902 (0xB56) (AC-3, Russian) / 2903 (0xB57) (MPEG Audio, Russian) / 2904 (0xB58) ()
Language                                 :  / Russian / Russian
Яндекс.Метрика
Рейтинг@Mail.ru