(Шансон) Иван Кучин - Вольная песня - 2005, FLAC (image+.cue), lossless

 

Создавать темы 09-Май-2015 19:41

-Иван Кучин - Вольная песня- Жанр: Шансон
Год выпуска диска: 2005
Производитель диска: Россия
Аудио кодек: FLAC
Тип рипа: image+.cue
Битрейт аудио: lossless
Продолжительность: 78:10-Трэклист:
01.Сосед
02.Барыня
03.Жиганская душа
04.Человек в телогрейке
05.Заряженный наган
06.Судьба воровская
07.В таверне
08.Обыкновенная
09.Гимназисточка
10.А на черных ресницах
11.Сентиментальный детектив - 1
12.Сентиментальный детектив - 2
13.Сентиментальный детектив - 3
14.Вор и судья
15.Не уходи
16.Таволга
17.На перроне вокзала
18.Роза на крови
19.Изба
20.Пройдут года
21.Фотокарточка-

Отчёт EAC

Exact Audio Copy V0.99 prebeta 4 from 23. January 2008
Отчёт EAC об извлечении, выполненном 27. июля 2008, 1:17
Иван Кучин / Вольная песня
Дисковод: HL-DT-STDVDRAM GSA-4167B Adapter: 1 ID: 1
Режим чтения : Достоверность
Использование точного потока : Да
Отключение кэша аудио : Да
Использование указателей C2 : Нет
Коррекция смещения при чтении : 667
Способность читать области Lead-in и Lead-out : Нет
Заполнение пропущенных сэмплов тишиной : Да
Удаление блоков с тишиной в начале и конце : Нет
При вычислениях CRC использовались нулевые сэмплы : Да
Интерфейс : Встроенный Win32-интерфейс для Win NT/2000
Выходной формат : Внутренние WAV-операции
Формат сэмплов : 44.100 Гц; 16 бит; стерео
TOC извлечённого CD
Трек | Старт | Длительность | Начальный сектор | Конечный сектор
---------------------------------------------------------------------
1 | 0:00.00 | 3:58.21 | 0 | 17870
2 | 3:58.21 | 3:48.10 | 17871 | 34980
3 | 7:46.31 | 3:15.48 | 34981 | 49653
4 | 11:02.04 | 5:18.74 | 49654 | 73577
5 | 16:21.03 | 3:03.62 | 73578 | 87364
6 | 19:24.65 | 3:45.59 | 87365 | 104298
7 | 23:10.49 | 4:20.08 | 104299 | 123806
8 | 27:30.57 | 3:43.34 | 123807 | 140565
9 | 31:14.16 | 3:53.64 | 140566 | 158104
10 | 35:08.05 | 3:24.28 | 158105 | 173432
11 | 38:32.33 | 3:30.55 | 173433 | 189237
12 | 42:03.13 | 3:30.42 | 189238 | 205029
13 | 45:33.55 | 3:50.27 | 205030 | 222306
14 | 49:24.07 | 3:08.02 | 222307 | 236408
15 | 52:32.09 | 3:31.23 | 236409 | 252256
16 | 56:03.32 | 3:37.10 | 252257 | 268541
17 | 59:40.42 | 3:36.33 | 268542 | 284774
18 | 63:17.00 | 3:19.06 | 284775 | 299705
19 | 66:36.06 | 4:08.44 | 299706 | 318349
20 | 70:44.50 | 3:41.56 | 318350 | 334980
21 | 74:26.31 | 3:43.50 | 334981 | 351755
Характеристики диапазона извлечения и сообщения об ошибках
Выбранный диапазон
Имя файла C:\Documents and Settings\Vladimir\Рабочий стол\Kuchin_Volnaya.pesnya_[rutracker.org]\Иван Кучин - Вольная песня.wav
Пиковый уровень 96.6 %
Качество диапазона 99.9 %
CRC копии F83E9F66
Копирование... OK
Ошибок не произошло
Конец отчёта
-
Яндекс.Метрика
Рейтинг@Mail.ru