(шансон) Вилли Токарев - Лучшие песни (2 CD) - ...., FLAC (image+.cue), lossless

 

Создавать темы 09-Май-2015 19:35

-Вилли Токарев - Лучшие песни (2 CD)- Жанр: шансон
Страна-производитель диска: Россия
Издатель (лейбл): ZEBRA Studio / DIGITAL Records
Страна: Россия
Аудиокодек: FLAC (*.flac)
Тип рипа: image+.cue
Битрейт аудио: lossless
Продолжительность: 01:13:49 / 01:14:00
Источник (релизер): собственный рип
Наличие сканов в содержимом раздачи: да-

Треклист

CD 1
01.В шумном балагане
02.Небоскрёбы
03.Купите орешки
04.Журавли
05.Мы в жизни встретились
06.Золото
07.Держи вора
08.Нищета
09.Нью-Йоркский таксист
10.Канада
11.Зойка-налётчица
12.Диетпитание
13.Евреи из Одессы
14.Гардеробщик
15.Политика
16.Водочка
17.S.O.S.
18.Сингарелла
19.Люська - хулиганка
20.Сочи
21.Маша - Машенька
22.Чубчик кучерявый

Лог создания рипа

Exact Audio Copy V1.0 beta 3 from 29. August 2011
Отчёт EAC об извлечении, выполненном 15. ноября 2013, 2:25
Вилли Токарев / Лучшие песни. CD 1
Дисковод: PIONEER BD-RW   BDR-207   Adapter: 3  ID: 0
Режим чтения                 : Достоверность
Использование точного потока : Да
Отключение кэша аудио        : Да
Использование указателей C2  : Нет
Коррекция смещения при чтении                     : 667
Способность читать области Lead-in и Lead-out     : Нет
Заполнение пропущенных сэмплов тишиной            : Да
Удаление блоков с тишиной в начале и конце        : Нет
При вычислениях CRC использовались нулевые сэмплы : Да
Интерфейс                                         : Установленный внешний ASPI-интерфейс
Выходной формат          : Пользовательский кодировщик
Выбранный битрейт        : 896 kBit/s
Качество                 : Высокий
Добавление ID3-тега      : Нет
Утилита сжатия           : C:\Program Files (x86)\Exact Audio Copy\Flac\flac.exe
Дополнительные параметры : -V -8 -T "Date=%year%" -T "Genre=%genre%" %source%
TOC извлечённого CD
     Трек |   Старт  | Длительность | Начальный сектор | Конечный сектор
    ---------------------------------------------------------------------
       1  |  0:00.00 |    2:32.63   |           0      |      11462
       2  |  2:32.63 |    3:13.51   |       11463      |      25988
       3  |  5:46.39 |    4:17.69   |       25989      |      45332
       4  | 10:04.33 |    4:12.21   |       45333      |      64253
       5  | 14:16.54 |    3:54.66   |       64254      |      81869
       6  | 18:11.45 |    3:16.22   |       81870      |      96591
       7  | 21:27.67 |    2:36.44   |       96592      |     108335
       8  | 24:04.36 |    3:44.64   |      108336      |     125199
       9  | 27:49.25 |    4:04.15   |      125200      |     143514
      10  | 31:53.40 |    3:08.44   |      143515      |     157658
      11  | 35:02.09 |    3:00.66   |      157659      |     171224
      12  | 38:03.00 |    2:47.20   |      171225      |     183769
      13  | 40:50.20 |    2:51.25   |      183770      |     196619
      14  | 43:41.45 |    2:16.55   |      196620      |     206874
      15  | 45:58.25 |    2:59.44   |      206875      |     220343
      16  | 48:57.69 |    2:57.30   |      220344      |     233648
      17  | 51:55.24 |    3:19.45   |      233649      |     248618
      18  | 55:14.69 |    5:26.09   |      248619      |     273077
      19  | 60:41.03 |    2:20.14   |      273078      |     283591
      20  | 63:01.17 |    4:29.55   |      283592      |     303821
      21  | 67:30.72 |    3:07.04   |      303822      |     317850
      22  | 70:38.01 |    3:09.03   |      317851      |     332028
Характеристики диапазона извлечения и сообщения об ошибках
Выбранный диапазон
     Имя файла G:\lossless\Токарев Вилли\Вилли Токарев - Лучшие песни - 2 CD\CD 1\Вилли Токарев - Лучшие песни. CD 1.wav
     Пиковый уровень 89.1 %
     Скорость извлечения 7.8 X
     Качество диапазона 99.9 %
     CRC теста 8D9895A2
     CRC копии 8D9895A2
     Копирование... OK
Ошибок не произошло
AccurateRip: сводка
Трек  1  отсутствует в базе данных
Трек  2  отсутствует в базе данных
Трек  3  отсутствует в базе данных
Трек  4  отсутствует в базе данных
Трек  5  отсутствует в базе данных
Трек  6  отсутствует в базе данных
Трек  7  отсутствует в базе данных
Трек  8  отсутствует в базе данных
Трек  9  отсутствует в базе данных
Трек 10  отсутствует в базе данных
Трек 11  отсутствует в базе данных
Трек 12  отсутствует в базе данных
Трек 13  отсутствует в базе данных
Трек 14  отсутствует в базе данных
Трек 15  отсутствует в базе данных
Трек 16  отсутствует в базе данных
Трек 17  отсутствует в базе данных
Трек 18  отсутствует в базе данных
Трек 19  отсутствует в базе данных
Трек 20  отсутствует в базе данных
Трек 21  отсутствует в базе данных
Трек 22  отсутствует в базе данных
Ни одного трека нет в базе AccurateRip
Конец отчёта
==== Контрольная сумма отчёта 66F0D98AE03627906F2FACC0CA98CD55C7F58B1108CC6A59A967A5E2DACC5516 ====
-CD 2
01.Рыбацкая
02.Над Гудзоном
03.Муж - муженёк
04.На Дерибасовской
05.Здравствуйте, родные эмигранты
06.Ростовский урка
07.Билет
08.Люба - Любонька
09.Почему евреи уезжают
10.Тётя Хая
11.Песня тракториста
12.Придурок ненормальный
13.Я мальчишка седой
14.Ещё не поздно
15.Газета
16.Воры - гумманисты
17.Гитара с треснувшею декой
18.Официант
19.В бегах
20.У папы день рождения
21.Брызги шампанского
22.Стаканчики

Лог создания рипа

Exact Audio Copy V1.0 beta 3 from 29. August 2011
Отчёт EAC об извлечении, выполненном 15. ноября 2013, 15:31
Вилли Токарев / Лучшие песни - CD 2
Дисковод: PIONEER BD-RW   BDR-207   Adapter: 3  ID: 0
Режим чтения                 : Достоверность
Использование точного потока : Да
Отключение кэша аудио        : Да
Использование указателей C2  : Нет
Коррекция смещения при чтении                     : 667
Способность читать области Lead-in и Lead-out     : Нет
Заполнение пропущенных сэмплов тишиной            : Да
Удаление блоков с тишиной в начале и конце        : Нет
При вычислениях CRC использовались нулевые сэмплы : Да
Интерфейс                                         : Установленный внешний ASPI-интерфейс
Выходной формат          : Пользовательский кодировщик
Выбранный битрейт        : 896 kBit/s
Качество                 : Высокий
Добавление ID3-тега      : Нет
Утилита сжатия           : C:\Program Files (x86)\Exact Audio Copy\Flac\flac.exe
Дополнительные параметры : -V -8 -T "Date=%year%" -T "Genre=%genre%" %source%
TOC извлечённого CD
     Трек |   Старт  | Длительность | Начальный сектор | Конечный сектор
    ---------------------------------------------------------------------
       1  |  0:00.00 |    3:03.31   |           0      |      13755
       2  |  3:03.31 |    4:30.06   |       13756      |      34011
       3  |  7:33.37 |    2:30.05   |       34012      |      45266
       4  | 10:03.42 |    5:02.64   |       45267      |      67980
       5  | 15:06.31 |    3:55.23   |       67981      |      85628
       6  | 19:01.54 |    3:18.35   |       85629      |     100513
       7  | 22:20.14 |    2:18.34   |      100514      |     110897
       8  | 24:38.48 |    3:27.25   |      110898      |     126447
       9  | 28:05.73 |    3:50.39   |      126448      |     143736
      10  | 31:56.37 |    2:45.66   |      143737      |     156177
      11  | 34:42.28 |    3:52.62   |      156178      |     173639
      12  | 38:35.15 |    2:58.52   |      173640      |     187041
      13  | 41:33.67 |    3:23.36   |      187042      |     202302
      14  | 44:57.28 |    3:43.10   |      202303      |     219037
      15  | 48:40.38 |    3:26.04   |      219038      |     234491
      16  | 52:06.42 |    1:58.17   |      234492      |     243358
      17  | 54:04.59 |    4:06.19   |      243359      |     261827
      18  | 58:11.03 |    3:36.41   |      261828      |     278068
      19  | 61:47.44 |    3:19.67   |      278069      |     293060
      20  | 65:07.36 |    2:30.31   |      293061      |     304341
      21  | 67:37.67 |    3:00.54   |      304342      |     317895
      22  | 70:38.46 |    3:20.22   |      317896      |     332917
Характеристики диапазона извлечения и сообщения об ошибках
Выбранный диапазон
     Имя файла G:\lossless\Токарев Вилли\Вилли Токарев - Лучшие песни - 2 CD\CD 2\Вилли Токарев - Лучшие песни - CD 2.wav
     Пиковый уровень 89.1 %
     Скорость извлечения 5.0 X
     Качество диапазона 100.0 %
     CRC теста 0AE836F8
     CRC копии 0AE836F8
     Копирование... OK
Ошибок не произошло
AccurateRip: сводка
Трек  1  отсутствует в базе данных
Трек  2  отсутствует в базе данных
Трек  3  отсутствует в базе данных
Трек  4  отсутствует в базе данных
Трек  5  отсутствует в базе данных
Трек  6  отсутствует в базе данных
Трек  7  отсутствует в базе данных
Трек  8  отсутствует в базе данных
Трек  9  отсутствует в базе данных
Трек 10  отсутствует в базе данных
Трек 11  отсутствует в базе данных
Трек 12  отсутствует в базе данных
Трек 13  отсутствует в базе данных
Трек 14  отсутствует в базе данных
Трек 15  отсутствует в базе данных
Трек 16  отсутствует в базе данных
Трек 17  отсутствует в базе данных
Трек 18  отсутствует в базе данных
Трек 19  отсутствует в базе данных
Трек 20  отсутствует в базе данных
Трек 21  отсутствует в базе данных
Трек 22  отсутствует в базе данных
Ни одного трека нет в базе AccurateRip
Конец отчёта
==== Контрольная сумма отчёта 78F756D25404863D093243182D103369C1F809B03D30E1B648D30BEBE5F31203 ====
Яндекс.Метрика
Рейтинг@Mail.ru