Искатели приключений / Les Aventuriers (Робер Энрико) [1967, Приключения, драма, HDDVDRip 720p] by msltel | D, P

 

Создавать темы 01-Дек-2013 03:52

Название: Искатели приключений
Оригинальное название: Les aventuriers
Год выпуска: 1967
Жанр: Приключения, драма
Выпущено: Франция, Италия, Compagnia Generale Finanziaria Cinematografica
Режиссер: Робер Энрико
В ролях: Ален Делон, Лино Вентура, Джоанна Шимкус, Серж Реджани, Поль Кроше, Ханс Майер, Ги Делорм, Тереза Квантен, Жан Дарье, Жан Троньон, Одиль Пуассон, Ирен Тунк, Валерий Инкижинов, Рауль Гилад, Жан Ландье, Мик Бессон
О фильме: Троицу отважных парижан одолевают сумасбродные мечты. Пролететь на самолёте под Триумфальной аркой, например. Но даже такие устремления не останавливают их перед возможностью ещё более рискованных приключений. Они отправляются к берегам Конго за... сокровищами. Но там их ждёт роковое столкновение…
Качество: HDDVDRip 720p
Размер: 4.96 ГБ
Продолжительность: 01:52:58
Видео: MPEG-4 AVC, 4999 Kбит/с, 1280x544
Аудио 1: русский, 48 kHz, AC3, 2 ch, 192 kbps avg, [Дублированный, с добавлением MVO]
Аудио 2: русский, 48 kHz, AC3, 6 ch, 448 kbps avg, [Профессиональный многоголосый]
Аудио 3: французский, 48 kHz, AC3, 6 ch, 640 kbps avg, [Оригинал]
Субтитры: русские
Имеются неименованные главы/чаптеры.
Исходник: KIMA2 (Кинозал)
Сравнение с исходником

MediaInfo + Лог х264

Общее
Уникальный идентификатор : 216696940434484558012631615359113930541 (0xA30650096FB3E341BA3171E2681AA72D)
Полное имя : E:VideoIskateli.prikljuchenij.1967.x264.HDDVDRip.720p.mkv
Формат : Matroska
Версия формата : Version 4 / Version 2
Размер файла : 4,96 Гбайт
Продолжительность : 1 ч. 52 м.
Общий поток : 6282 Кбит/сек
Название фильма : Искатели приключений / Les aventuriers / 1967 / HDDVDRip -- STarankov
Дата кодирования : UTC 2013-11-30 10:12:55
Программа кодирования : mkvmerge v6.4.1 ('Omega Point') built on Sep 16 2013 22:05:10
Библиотека кодирования : libebml v1.3.0 + libmatroska v1.4.1
Видео
Идентификатор : 1
Формат : AVC
Формат/Информация : Advanced Video Codec
Профиль формата : [email protected]
Параметр CABAC формата : Да
Параметр ReFrames формата : 11 кадров
Идентификатор кодека : V_MPEG4/ISO/AVC
Продолжительность : 1 ч. 52 м.
Битрейт : 4999 Кбит/сек
Ширина : 1280 пикселей
Высота : 544 пикселя
Соотношение сторон : 2,35:1
Режим частоты кадров : Постоянный
Частота кадров : 23,976 кадра/сек
Цветовое пространство : YUV
Субдискретизация насыщенности : 4:2:0
Битовая глубина : 8 бит
Тип развёртки : Прогрессивная
Бит/(Пиксели*Кадры) : 0.299
Размер потока : 3,85 Гбайт (78%)
Библиотека кодирования : x264 core 138 r2358 9e941d1
Настройки программы : cabac=1 / ref=11 / deblock=1:-1:-1 / analyse=0x3:0x113 / me=umh / subme=10 / psy=1 / psy_rd=1.00:0.15 / mixed_ref=1 / me_range=24 / chroma_me=1 / trellis=2 / 8x8dct=1 / cqm=0 / deadzone=21,11 / fast_pskip=0 / chroma_qp_offset=-3 / threads=6 / lookahead_threads=1 / sliced_threads=0 / nr=0 / decimate=0 / interlaced=0 / bluray_compat=0 / constrained_intra=0 / bframes=8 / b_pyramid=2 / b_adapt=2 / b_bias=0 / direct=3 / weightb=1 / open_gop=0 / weightp=2 / keyint=230 / keyint_min=23 / scenecut=40 / intra_refresh=0 / rc_lookahead=40 / rc=2pass / mbtree=0 / bitrate=4999 / ratetol=1.0 / qcomp=0.60 / qpmin=0 / qpmax=69 / qpstep=4 / cplxblur=20.0 / qblur=0.5 / vbv_maxrate=50000 / vbv_bufsize=62500 / nal_hrd=none / ip_ratio=1.40 / pb_ratio=1.30 / aq=1:1.00
Язык : French
Default : Да
Forced : Нет
Аудио #1
Идентификатор : 2
Формат : AC-3
Формат/Информация : Audio Coding 3
Расширение режима : CM (complete main)
Параметр Endianness формата : Big
Идентификатор кодека : A_AC3
Продолжительность : 1 ч. 52 м.
Вид битрейта : Постоянный
Битрейт : 192 Кбит/сек
Каналы : 2 канала
Расположение каналов : Front: L R
Частота : 48,0 КГц
Битовая глубина : 16 бит
Метод сжатия : С потерями
Размер потока : 155 Мбайт (3%)
Заголовок : DUB (с добавлением MVO)
Язык : Russian
Default : Да
Forced : Нет
Аудио #2
Идентификатор : 3
Формат : AC-3
Формат/Информация : Audio Coding 3
Расширение режима : CM (complete main)
Параметр Endianness формата : Big
Идентификатор кодека : A_AC3
Продолжительность : 1 ч. 52 м.
Вид битрейта : Постоянный
Битрейт : 448 Кбит/сек
Каналы : 6 каналов
Расположение каналов : Front: L C R, Side: L R, LFE
Частота : 48,0 КГц
Битовая глубина : 16 бит
Метод сжатия : С потерями
Размер потока : 362 Мбайт (7%)
Заголовок : MVO
Язык : Russian
Default : Нет
Forced : Нет
Аудио #3
Идентификатор : 4
Формат : AC-3
Формат/Информация : Audio Coding 3
Расширение режима : CM (complete main)
Параметр Endianness формата : Big
Идентификатор кодека : A_AC3
Продолжительность : 1 ч. 52 м.
Вид битрейта : Постоянный
Битрейт : 640 Кбит/сек
Каналы : 2 канала
Расположение каналов : Front: L R
Частота : 48,0 КГц
Битовая глубина : 16 бит
Метод сжатия : С потерями
Размер потока : 517 Мбайт (10%)
Заголовок : Original
Язык : French
Default : Нет
Forced : Нет
Текст
Идентификатор : 5
Формат : UTF-8
Идентификатор кодека : S_TEXT/UTF8
Идентификатор кодека/Информация : UTF-8 Plain Text
Заголовок : русский
Язык : Russian
Default : Нет
Forced : Нет
Меню
00:00:00.000 : en:
00:00:08.199 : en:
00:02:16.033 : en:
00:04:09.450 : en:
00:07:55.616 : en:
00:09:41.450 : en:
00:12:18.750 : en:
00:14:19.032 : en:
00:16:10.366 : en:
00:17:33.000 : en:
00:19:41.333 : en:
00:22:38.116 : en:
00:25:01.199 : en:
00:26:48.449 : en:
00:28:46.083 : en:
00:30:53.616 : en:
00:32:22.950 : en:
00:34:32.250 : en:
00:36:34.916 : en:
00:37:45.949 : en:
00:39:30.366 : en:
00:40:50.000 : en:
00:43:03.000 : en:
00:44:22.750 : en:
00:47:16.199 : en:
00:50:36.116 : en:
00:51:58.500 : en:
00:53:40.166 : en:
00:55:02.950 : en:
00:58:02.666 : en:
01:01:24.166 : en:
01:05:11.750 : en:
01:07:50.700 : en:
01:09:48.533 : en:
01:12:11.450 : en:
01:14:48.582 : en:
01:16:47.000 : en:
01:19:32.250 : en:
01:22:29.533 : en:
01:25:06.750 : en:
01:28:20.666 : en:
01:29:43.450 : en:
01:32:37.916 : en:
01:33:35.832 : en:
01:36:22.200 : en:
01:39:07.366 : en:
01:40:17.166 : en:
01:42:00.833 : en:
01:44:35.033 : en:
01:46:11.283 : en:
01:47:22.700 : en:
01:49:12.783 : en:
01:50:43.333 : en:
01:51:32.166 : en:
---[Information] [30.11.2013 5:09:51] avs [info]: 1280x544p 1:1 @ 24000/1001 fps (cfr)
---[Information] [30.11.2013 5:09:51] x264 [info]: using SAR=1/1
---[Information] [30.11.2013 5:09:51] x264 [info]: using cpu capabilities: MMX2 SSE2Fast SSSE3 SSE4.2
---[Information] [30.11.2013 5:09:51] x264 [info]: profile High, level 4.1
---[Information] [30.11.2013 17:04:30] x264 [info]: frame I:916 Avg QP:19.96 size: 87554
---[Information] [30.11.2013 17:04:32] x264 [info]: frame P:35282 Avg QP:22.43 size: 42927
---[Information] [30.11.2013 17:04:32] x264 [info]: frame B:126330 Avg QP:23.89 size: 20908
---[Information] [30.11.2013 17:04:32] x264 [info]: consecutive B-frames: 1.4% 3.2% 9.1% 22.1% 16.0% 33.9% 6.6% 3.0% 4.6%
---[Information] [30.11.2013 17:04:32] x264 [info]: mb I I16..4: 1.6% 90.8% 7.6%
---[Information] [30.11.2013 17:04:32] x264 [info]: mb P I16..4: 0.4% 26.3% 1.1% P16..4: 34.4% 26.6% 10.7% 0.0% 0.0% skip: 0.4%
---[Information] [30.11.2013 17:04:32] x264 [info]: mb B I16..4: 0.0% 2.5% 0.1% B16..8: 46.8% 18.1% 4.7% direct:11.0% skip:16.8% L0:45.4% L1:44.8% BI: 9.8%
---[Information] [30.11.2013 17:04:32] x264 [info]: 8x8 transform intra:94.2% inter:67.5%
---[Information] [30.11.2013 17:04:32] x264 [info]: direct mvs spatial:98.7% temporal:1.3%
---[Information] [30.11.2013 17:04:32] x264 [info]: coded y,uvDC,uvAC intra: 97.8% 78.9% 42.4% inter: 55.7% 30.1% 5.9%
---[Information] [30.11.2013 17:04:32] x264 [info]: i16 v,h,dc,p: 49% 21% 7% 23%
---[Information] [30.11.2013 17:04:32] x264 [info]: i8 v,h,dc,ddl,ddr,vr,hd,vl,hu: 7% 9% 8% 9% 14% 12% 14% 11% 15%
---[Information] [30.11.2013 17:04:32] x264 [info]: i4 v,h,dc,ddl,ddr,vr,hd,vl,hu: 9% 10% 1% 7% 15% 14% 18% 11% 15%
---[Information] [30.11.2013 17:04:32] x264 [info]: i8c dc,h,v,p: 38% 26% 20% 16%
---[Information] [30.11.2013 17:04:32] x264 [info]: Weighted P-Frames: Y:3.6% UV:0.9%
---[Information] [30.11.2013 17:04:32] x264 [info]: ref P L0: 39.1% 12.7% 19.9% 6.6% 6.1% 3.9% 3.9% 2.0% 2.1% 1.6% 1.8% 0.2% 0.0%
---[Information] [30.11.2013 17:04:32] x264 [info]: ref B L0: 66.1% 13.9% 6.9% 3.8% 2.7% 2.3% 1.9% 1.3% 0.7% 0.3%
---[Information] [30.11.2013 17:04:32] x264 [info]: ref B L1: 91.6% 8.4%
---[Information] [30.11.2013 17:04:32] x264 [info]: kb/s:4999.18
---[Information] [30.11.2013 17:04:32] encoded 162528 frames, 3.79 fps, 4999.18 kb/s
--[Information] [30.11.2013 17:04:38] Final statistics
---[Information] [30.11.2013 17:04:39] Video Bitrate Desired: 4999 kbit/s
---[Information] [30.11.2013 17:04:39] Video Bitrate Obtained (approximate): 5000 kbit/s
--[Information] [30.11.2013 17:04:39] MediaInfo
---[Information] File: E:RipIskateli.pricljuchenij.1967.x264.HDDVDRipIskateli.pricljuchenij.1967.x264.HDDVDRip.720p.mkv

Скриншоты

Яндекс.Метрика
Рейтинг@Mail.ru