[ Сегодня на трекере фрилич! Идет свободное скачивание без начисления Download ]

Семейка Крудс / The Croods (Кирк де Микко, Крис Сандерс / Kirk De Micco, Chris Sanders) [2013 г., Мультфильм, Фэнтези, Комедия, Приключения, Семейный, BDRip 1080p] Crop Anamorph OverUnder / Вертикальная анаморфная стереопара [Без чёрных полос!]

 

Создавать темы 27-Ноя-2013 12:21

Семейка Крудс

The Croods

- -
  • Год выпуска: 2013
  • Страна: США
  • Жанр: Мультфильм, Фэнтези, Комедия, Приключения, Семейный
  • Продолжительность: 01:38:37
  • Перевод: Профессиональный дублированный (Лицензия)
  • Субтитры: Русские, Английские (внешние)
  • Режиссер: Кирк де Микко, Крис Сандерс
  • Роли озвучивали (дублировали): Grug - Николас Кейдж (Дмитрий Назаров), Eep - Эмма Стоун (Нюша [Анна Шурочкина]), Guy - Райан Рейнольдс (Егор Дружинин), Ugga - Кэтрин Кинер, Gran - Клорис Личмен (Александра Назарова), Thunk - Кларк Дьюк (Руслан Мещанов), Belt - Крис Сандерс-
  • Описание: Чего только не сделаешь ради сохранения семьи, несмотря на то, что она доисторическая! Вот и мужественный глава семейства был твёрдо уверен - главное не позволять никогда и ничего менять и всегда жить "как в каменном веке" - по своим привычным правилам, в своей известной вдоль и поперёк пещере! И может, всё бы так и было бы, но однажды землетрясение нарушает привычный жизненный уклад и вынуждает срочно искать другую, неизвестную пока, пещеру, в непонятном и переменчивом мире, полном страшных опасностей и разных незнакомцев всех видов и мастей! Будет ли той семейке и на новом месте веселее вместе и что поможет ей выжить и достичь заветной цели?-
  • Качество: BDRip 1080p
  • Формат 3D: Crop OverUnder / Вертикальная анаморфная стереопара [Без чёрных полос!]
  • Порядок ракурсов:: Левый ракурс первый
  • Видео кодек: Advanced Video Codec
  • Аудио кодек: AC3
  • Видео: AVC, 1 920x1 080 (16:9), 23.976 кадр/сек, 10.4 Mbps
  • Аудио#1: Русский, 48 kHz, AC3 Dolby Digital, 3/2 (L,C,R,l,r) + LFE ch, 640 kbps avg
  • Аудио#2: Английский, 48 kHz, AC3 Dolby Digital, 3/2 (L,C,R,l,r) + LFE ch, 640 kbps avg-
  • Релиз: -

    Рейтинги

    -

    MediaInfo

    General
    Unique ID : 195420983741268643932830863192347314079 (0x9304B6622211DBDA99033CDB44BF079F)
    Complete name : E:\STEREO CROP\The Croods_(CROP)_Rip by Dag13.mkv
    Format : Matroska
    Format version : Version 2
    File size : 8.20 GiB
    Duration : 1h 38mn
    Overall bit rate : 11.9 Mbps
    Encoded date : UTC 2013-09-18 19:43:00
    Writing application : mkvmerge v3.4.0 ('Rapunzel') сборка от May 15 2010 09:38:20
    Writing library : libebml v0.8.0 + libmatroska v0.9.0
    Video
    ID : 1
    Format : AVC
    Format/Info : Advanced Video Codec
    Format profile : [url=mailto:[email protected]][email protected][/url]
    Format settings, CABAC : Yes
    Format settings, ReFrames : 4 frames
    Codec ID : V_MPEG4/ISO/AVC
    Duration : 1h 38mn
    Bit rate : 10.4 Mbps
    Width : 1 920 pixels
    Height : 1 080 pixels
    Display aspect ratio : 16:9
    Frame rate : 23.976 fps
    Color space : YUV
    Chroma subsampling : 4:2:0
    Bit depth : 8 bits
    Scan type : Progressive
    Bits/(Pixel*Frame) : 0.209
    Stream size : 7.16 GiB (87%)
    Title : Rip by Dag13
    Writing library : x264 core 116 r2074 2641b9e
    Encoding settings : cabac=1 / ref=4 / deblock=1:-3:-3 / analyse=0x3:0x113 / me=umh / subme=9 / psy=1 / psy_rd=1.00:0.00 / mixed_ref=1 / me_range=16 / chroma_me=1 / trellis=2 / 8x8dct=1 / cqm=0 / deadzone=21,11 / fast_pskip=1 / chroma_qp_offset=-2 / threads=9 / sliced_threads=0 / nr=0 / decimate=1 / interlaced=0 / bluray_compat=0 / constrained_intra=0 / bframes=6 / b_pyramid=2 / b_adapt=2 / b_bias=0 / direct=3 / weightb=1 / open_gop=0 / weightp=2 / keyint=250 / keyint_min=23 / scenecut=40 / intra_refresh=0 / rc_lookahead=60 / rc=crf / mbtree=1 / crf=17.0 / qcomp=0.60 / qpmin=1 / qpmax=69 / qpstep=4 / ip_ratio=1.40 / aq=1:1.00
    Language : English
    Default : No
    Forced : No
    Audio #1
    ID : 2
    Format : AC-3
    Format/Info : Audio Coding 3
    Mode extension : CM (complete main)
    Codec ID : A_AC3
    Duration : 1h 38mn
    Bit rate mode : Constant
    Bit rate : 640 Kbps
    Channel(s) : 6 channels
    Channel positions : Front: L C R, Side: L R, LFE
    Sampling rate : 48.0 KHz
    Bit depth : 16 bits
    Compression mode : Lossy
    Stream size : 451 MiB (5%)
    Language : Russian
    Default : Yes
    Forced : No
    Audio #2
    ID : 3
    Format : AC-3
    Format/Info : Audio Coding 3
    Mode extension : CM (complete main)
    Codec ID : A_AC3
    Duration : 1h 38mn
    Bit rate mode : Constant
    Bit rate : 640 Kbps
    Channel(s) : 6 channels
    Channel positions : Front: L C R, Side: L R, LFE
    Sampling rate : 48.0 KHz
    Bit depth : 16 bits
    Compression mode : Lossy
    Stream size : 451 MiB (5%)
    Language : English
    Default : No
    Forced : No
    -

Скриншоты

Внимание! Справа и слева у видеоряда обрезано по 236р, что дает возможность просмотра на полный экран (без черных полос) на телевизорах с соотношением сторон 16:9 без изменения пропорций.
Яндекс.Метрика
Рейтинг@Mail.ru