[ Сегодня на трекере фрилич! Идет свободное скачивание без начисления Download ]

Элита убийц / The Killer Elite ( Сэм Пекинпа)[ 1975,Боевик,DVDRip] - от NovaLan

 

Создавать темы 26-Ноя-2013 02:35

Страна: США
Производство: Exeter Associates, Persky-Bright Productions, Metro-Goldwyn-Mayer (MGM)
Жанр: Боевик
Год выпуска: 1975
Продолжительность: 01:58:20
Перевод: Авторский (Михалев)
Оригинальная аудиодорожка: Английская
Режиссер: Сэм Пекинпа
В ролях: Джеймс Каан, Роберт Дювалл, Артур Хилл, Бо Хопкинс, Мако, Бёрт Янг, Гиг Янг, Том Клэнси, Тиана Александра, Уолтер Келли, Кейт Хефлин, Сондра Блейк, Кэрол Мэллори, Джеймс Уинг Ву, Джордж Чунг, Хэнк Хэмилтон, Виктор Сен Юнг, Так Кубота, Рик Алемани, Джонни Баррелл, Билли Дж. Скотт

Описание: Наемный убийца Джордж Хансен обманывает своего партнера Майка Локена, чем порождает у того неуемную жажду мести со всеми вытекающими из этого последствиями.
Исходник: DVD9 R1
Тип релиза: DVDRip
Контейнер: AVI
Видео: 704x304 (2.32:1), 25 fps, XviD ~1399 kbps avg, 0.26 bit/pixel
Аудио: #1: 48 kHz, AC3 2.0 ~192.00 kbps avg (RUS)
Аудио: #2: 48 kHz, AC3 2.0 ~192.00 kbps avg (ENG)

MediaInfo

Общее
Полное имя : D:1АААThe Killer Elite.avi
Формат : AVI
Формат/Информация : Audio Video Interleave
Размер файла : 1,49 Гбайт
Продолжительность : 1 ч. 58 м.
Общий поток : 1799 Кбит/сек
Название фильма : Killer Elite, The (1975)
Программа кодирования : VirtualDubMod 1.5.10.2 (build 2540/release)
Библиотека кодирования : VirtualDubMod build 2540/release
Правообладатель : www.uralmix.ru
Видео
Идентификатор : 0
Формат : MPEG-4 Visual
Профиль формата : Advanced [email protected]
Параметр BVOP формата : 1
Параметр QPel формата : Нет
Параметр GMC формата : Без точки перехода
Параметр матрицы формата : Default (H.263)
Идентификатор кодека : XVID
Идентификатор кодека/Подсказка : XviD
Продолжительность : 1 ч. 58 м.
Битрейт : 1401 Кбит/сек
Ширина : 704 пикселя
Высота : 304 пикселя
Соотношение сторон : 2,35:1
Частота кадров : 25,000 кадров/сек
Цветовое пространство : YUV
Субдискретизация насыщенности : 4:2:0
Битовая глубина : 8 бит
Тип развёртки : Прогрессивная
Метод сжатия : С потерями
Бит/(Пиксели*Кадры) : 0.262
Размер потока : 1,16 Гбайт (78%)
Библиотека кодирования : XviD 1.2.1 (UTC 2008-12-04)
Аудио #1
Идентификатор : 1
Формат : AC-3
Формат/Информация : Audio Coding 3
Расширение режима : CM (complete main)
Параметр Endianness формата : Big
Идентификатор кодека : 2000
Продолжительность : 1 ч. 58 м.
Вид битрейта : Постоянный
Битрейт : 192 Кбит/сек
Каналы : 2 канала
Расположение каналов : Front: L R
Частота : 48,0 КГц
Битовая глубина : 16 бит
Метод сжатия : С потерями
Размер потока : 162 Мбайт (11%)
Выравнивание : Разделение по промежуткам
Продолжительность промежутка : 40 мс. (1,00 видеокадр)
Время предзагрузки промежутка : 500 мс.
Язык : Не определен
Аудио #2
Идентификатор : 2
Формат : AC-3
Формат/Информация : Audio Coding 3
Расширение режима : CM (complete main)
Параметр Endianness формата : Big
Идентификатор кодека : 2000
Продолжительность : 1 ч. 58 м.
Вид битрейта : Постоянный
Битрейт : 192 Кбит/сек
Каналы : 2 канала
Расположение каналов : Front: L R
Частота : 48,0 КГц
Битовая глубина : 16 бит
Метод сжатия : С потерями
Размер потока : 162 Мбайт (11%)
Выравнивание : Разделение по промежуткам
Продолжительность промежутка : 40 мс. (1,00 видеокадр)
Время предзагрузки промежутка : 500 мс.

Скриншоты

Яндекс.Метрика
Рейтинг@Mail.ru