[ Сегодня на трекере фрилич! Идет свободное скачивание без начисления Download ]

Yanni Hrisomallis / Yanni Live! The Concert Event (2006) BDRip [1920x1080]

 

Создавать темы 14-Мар-2015 09:02

-Yanni Hrisomallis / Yanni Live! The Concert Event (2006)-
Оригинальное название: Yanni Live! The Concert Event
Год выпуска: 2006
Жанр: New Age
Выпущено: США, Image Entertainment
Режиссер: Джордж Верас, Джерри МакРейнольдс
Исполнитель: Yanni
О музыке: Янни - поистине великий мультиинструменталист. Родившись в Греции и живя в США, он стал известен во всем мире благодаря потрясающим мелодиям синтезатора и огромного множества различных инструментов. Каждая новая мелодия Янни непохожа на предыдущую. Его стиль разнообразен. У него можно услышать множество интересных совмещений популярных мелодий и классической музыки. Он много пишет для радио и телевидения. Yanni Live! The Concert Event был записан в Mandalay Bay Events Center (Лас Вегас) 6 ноября 2004 года и выпущен на CD и DVD в 2006 году. Этот захватывающий и гипнотизирующий живой концерт был записан 16 камерами высокого качества и 125 каналами цифровой звукозаписи для бриллиантово чистого звука и эффектной звуковой сцены. Для этого концерта Янни собрал многих всемирно известных экстраординарных музыкантов.
Качество: BDRip
Видео: MPEG-4 AVC, 9 222 Кбит/с, 1920x1080 pixels
Аудио: Английский: (ААС 6 channels 448 kbps) ; (ААС 2 channels 165 kbps)
Доп: Английский: (DTS 48000Hz 6ch 1536kbps)
Размер: 6.44 ГБ
Продолжительность: 01:21:00
Перевод: Не требуется

Mediainfo

General
Format : MPEG-4
Format profile : Base Media / Version 2
Codec ID : mp42
File size : 5.59 GiB
Duration : 1h 21mn
Overall bit rate mode : Variable
Overall bit rate : 9 843 Kbps
Movie name : YANNI_LIVE!.Title2
Album : YANNI LIVE
Encoded date : UTC 2015-03-13 16:07:35
Tagged date : UTC 2015-03-13 18:03:51
Writing application : DVDFab 9.1.5.6
covr : Unknown kind of value!
Video
ID : 1
Format : AVC
Format/Info : Advanced Video Codec
Format profile : [email protected]
Format settings, CABAC : Yes
Format settings, ReFrames : 1 frame
Codec ID : avc1
Codec ID/Info : Advanced Video Coding
Duration : 1h 21mn
Bit rate : 9 222 Kbps
Width : 1 920 pixels
Height : 1 080 pixels
Display aspect ratio : 16:9
Frame rate mode : Constant
Frame rate : 29.970 fps
Color space : YUV
Chroma subsampling : 4:2:0
Bit depth : 8 bits
Scan type : Progressive
Bits/(Pixel*Frame) : 0.148
Stream size : 5.24 GiB (94%)
Writing library : x264 core
Encoded date : UTC 2015-03-13 16:07:35
Tagged date : UTC 2015-03-13 18:03:50
Color primaries : BT.709
Transfer characteristics : BT.709
Matrix coefficients : BT.709
Audio #1
ID : 2
Format : AAC
Format/Info : Advanced Audio Codec
Format profile : LC
Codec ID : 40
Duration : 1h 21mn
Bit rate mode : Variable
Bit rate : 448 Kbps
Maximum bit rate : 605 Kbps
Channel(s) : 6 channels
Channel positions : Front: L C R, Side: L R, LFE
Sampling rate : 48.0 KHz
Compression mode : Lossy
Stream size : 260 MiB (5%)
Language : English
Encoded date : UTC 2015-03-13 16:07:35
Tagged date : UTC 2015-03-13 18:03:42
Audio #2
ID : 3
Format : AAC
Format/Info : Advanced Audio Codec
Format profile : LC
Codec ID : 40
Duration : 1h 21mn
Bit rate mode : Variable
Bit rate : 165 Kbps
Maximum bit rate : 209 Kbps
Channel(s) : 2 channels
Channel positions : Front: L R
Sampling rate : 48.0 KHz
Compression mode : Lossy
Stream size : 96.1 MiB (2%)
Language : English
Encoded date : UTC 2015-03-13 16:07:35
Tagged date : UTC 2015-03-13 18:03:42
Menu
ID : 4
Codec ID : text
Duration : 1h 21mn
Encoded date : UTC 2015-03-13 16:07:35
Tagged date : UTC 2015-03-13 18:03:50
Bit rate mode : VBR

Треклист

01. Creating
02. Standing in Motion
03. Rainmaker
04. Keys to Imagination
05. Enchantment
06. On Sacred Ground
07. Playtime
08. Until the Last Moment
09. If I Could Tell You
10. For All Seasons
11. The Storm
12. Prelude
13. Nostalgia
14. World Dance

Звук

Для Истиных любителей качественного звука добавил оригинальную звуковую дорожку!

DTS 48000Hz 6ch 1536kbps

General
Format : DTS
Format/Info : Digital Theater Systems
File size : 877 MiB
Duration : 1h 21mn
Overall bit rate mode : Constant
Overall bit rate : 1 509 Kbps
Audio
Format : DTS
Format/Info : Digital Theater Systems
Mode : 16
Format settings, Endianness : Big
Duration : 1h 21mn
Bit rate mode : Constant
Bit rate : 1 509 Kbps
Channel(s) : 6 channels
Channel positions : Front: L C R, Side: L R, LFE
Sampling rate : 48.0 KHz
Bit depth : 24 bits
Compression mode : Lossy
Stream size : 877 MiB

Скриншоты:

Доп.Инфо: Это мой первый собственный Рип.! Прошу Всех Понять и Простить!!!
Яндекс.Метрика
Рейтинг@Mail.ru