[ Сегодня на трекере фрилич! Идет свободное скачивание без начисления Download ]

(Pop) Любэ - Лучшие Песни 1989 - 2015 [3xCD] - 2015, FLAC (tracks+.cue), lossless

 

Создавать темы 11-Мар-2015 12:22

-Любэ - Лучшие Песни 1989 - 2015 [3xCD]- Жанр: Pop
Носитель: CD
Страна-производитель диска (релиза): Россия
Год издания: 2015
Издатель (лейбл): Продюсерский центр Игоря Матвиенко
Номер по каталогу: Vol. 176.0-Аудиокодек: FLAC (*.flac)
Тип рипа: tracks+.cue
Битрейт аудио: lossless
Продолжительность: 03:46:45-Источник (релизер): BolshoeR собственный рип
Наличие сканов в содержимом раздачи: да-Треклист:-

Лучшие Песни 1989-1994

01. Люберцы (3:03)
02. Дуся - агрегат (4:45)
03. Ночь (3:32)
04. Атас (3:13)
05. Станция Таганская (3:29)
06. Батька Махно (3:44)
07. Давай - наяривай (5:27)
08. Не валяй дурака, Америка (3:29)
09. За тебя (4:05)
10. Трамвай пятёрочка (4:39)
11. Старый барин (3:33)
12. Ша (4:43)
13. Сирота Казанская (4:36)
14. Дорога (4:51)
15. На воле (6:00)
16. Белый лебедь (5:15)
17. Младшая сестрёнка (4:05)
18. Конь (3:38)-Продолжительность: 01:16:05

Лог создания рипа

Exact Audio Copy V1.0 beta 3 from 29. August 2011
Отчёт EAC об извлечении, выполненном 7. марта 2015, 15:05
Любэ / Лучшие Песни 1989-1994
Дисковод: PIONEER DVD-RW  DVR-218L   Adapter: 0  ID: 0
Режим чтения                 : Достоверность
Использование точного потока : Да
Отключение кэша аудио        : Да
Использование указателей C2  : Нет
Коррекция смещения при чтении                     : 6
Способность читать области Lead-in и Lead-out     : Нет
Заполнение пропущенных сэмплов тишиной            : Да
Удаление блоков с тишиной в начале и конце        : Нет
При вычислениях CRC использовались нулевые сэмплы : Да
Интерфейс                                         : Встроенный Win32-интерфейс для Win NT/2000
Обработка зазоров                                 : Добавлено к предыдущему треку
Выходной формат          : Пользовательский кодировщик
Выбранный битрейт        : 128 kBit/s
Качество                 : Высокий
Добавление ID3-тега      : Нет
Утилита сжатия           : C:\Program Files (x86)\Exact Audio Copy\Flac\flac.exe
Дополнительные параметры : -V -7 -T "Genre=%genre%" -T "Artist=%artist%" -T "Title=%title%" -T "Album=%albumtitle%" -T "Date=%year%" -T "Tracknumber=%tracknr%" -T "Comment=%comment%" %source%
TOC извлечённого CD
     Трек |   Старт  | Длительность | Начальный сектор | Конечный сектор
    ---------------------------------------------------------------------
       1  |  0:00.00 |    3:02.66   |           0      |      13715
       2  |  3:02.66 |    4:45.09   |       13716      |      35099
       3  |  7:48.00 |    3:31.53   |       35100      |      50977
       4  | 11:19.53 |    3:13.00   |       50978      |      65452
       5  | 14:32.53 |    3:29.02   |       65453      |      81129
       6  | 18:01.55 |    3:44.22   |       81130      |      97951
       7  | 21:46.02 |    5:27.16   |       97952      |     122492
       8  | 27:13.18 |    3:29.24   |      122493      |     138191
       9  | 30:42.42 |    4:04.43   |      138192      |     156534
      10  | 34:47.10 |    4:38.38   |      156535      |     177422
      11  | 39:25.48 |    3:33.02   |      177423      |     193399
      12  | 42:58.50 |    4:42.40   |      193400      |     214589
      13  | 47:41.15 |    4:35.38   |      214590      |     235252
      14  | 52:16.53 |    4:50.70   |      235253      |     257072
      15  | 57:07.48 |    5:59.61   |      257073      |     284058
      16  | 63:07.34 |    5:14.61   |      284059      |     307669
      17  | 68:22.20 |    4:04.49   |      307670      |     326018
      18  | 72:26.69 |    3:37.67   |      326019      |     342360
Трек  1
     Имя файла E:\_VIDEO\_seriaЛЫ_\!!!muz\Любэ Лучшие Песни 1989 - 2015 (2015) [3xCD]\Лучшие Песни 1989-1994\01 Люберцы.wav
     Длина предзазора  0:00:02.00
     Пиковый уровень 97.0 %
     Скорость извлечения 1.1 X
     Качество трека 100.0 %
     CRC теста 4B2F6C04
     CRC копии 4B2F6C04
     Трек не обнаружен в базе AccurateRip
     Копирование... OK
Трек  2
     Имя файла E:\_VIDEO\_seriaЛЫ_\!!!muz\Любэ Лучшие Песни 1989 - 2015 (2015) [3xCD]\Лучшие Песни 1989-1994\02 Дуся - агрегат.wav
     Длина предзазора  0:00:01.62
     Пиковый уровень 97.0 %
     Скорость извлечения 1.3 X
     Качество трека 100.0 %
     CRC теста 7A63223E
     CRC копии 7A63223E
     Трек не обнаружен в базе AccurateRip
     Копирование... OK
Трек  3
     Имя файла E:\_VIDEO\_seriaЛЫ_\!!!muz\Любэ Лучшие Песни 1989 - 2015 (2015) [3xCD]\Лучшие Песни 1989-1994\03 Ночь.wav
     Длина предзазора  0:00:01.62
     Пиковый уровень 97.0 %
     Скорость извлечения 1.4 X
     Качество трека 100.0 %
     CRC теста 0402F5CD
     CRC копии 0402F5CD
     Трек не обнаружен в базе AccurateRip
     Копирование... OK
Трек  4
     Имя файла E:\_VIDEO\_seriaЛЫ_\!!!muz\Любэ Лучшие Песни 1989 - 2015 (2015) [3xCD]\Лучшие Песни 1989-1994\04 Атас.wav
     Длина предзазора  0:00:01.62
     Пиковый уровень 97.0 %
     Скорость извлечения 1.4 X
     Качество трека 100.0 %
     CRC теста EF32C354
     CRC копии EF32C354
     Трек не обнаружен в базе AccurateRip
     Копирование... OK
Трек  5
     Имя файла E:\_VIDEO\_seriaЛЫ_\!!!muz\Любэ Лучшие Песни 1989 - 2015 (2015) [3xCD]\Лучшие Песни 1989-1994\05 Станция Таганская.wav
     Длина предзазора  0:00:01.62
     Пиковый уровень 97.0 %
     Скорость извлечения 1.5 X
     Качество трека 100.0 %
     CRC теста A49CEF06
     CRC копии A49CEF06
     Трек не обнаружен в базе AccurateRip
     Копирование... OK
Трек  6
     Имя файла E:\_VIDEO\_seriaЛЫ_\!!!muz\Любэ Лучшие Песни 1989 - 2015 (2015) [3xCD]\Лучшие Песни 1989-1994\06 Батька Махно.wav
     Длина предзазора  0:00:01.62
     Пиковый уровень 97.1 %
     Скорость извлечения 1.6 X
     Качество трека 100.0 %
     CRC теста 916B1596
     CRC копии 916B1596
     Трек не обнаружен в базе AccurateRip
     Копирование... OK
Трек  7
     Имя файла E:\_VIDEO\_seriaЛЫ_\!!!muz\Любэ Лучшие Песни 1989 - 2015 (2015) [3xCD]\Лучшие Песни 1989-1994\07 Давай - наяривай.wav
     Длина предзазора  0:00:01.62
     Пиковый уровень 97.0 %
     Скорость извлечения 1.8 X
     Качество трека 100.0 %
     CRC теста 796E752F
     CRC копии 796E752F
     Трек не обнаружен в базе AccurateRip
     Копирование... OK
Трек  8
     Имя файла E:\_VIDEO\_seriaЛЫ_\!!!muz\Любэ Лучшие Песни 1989 - 2015 (2015) [3xCD]\Лучшие Песни 1989-1994\08 Не валяй дурака, Америка.wav
     Длина предзазора  0:00:01.62
     Пиковый уровень 97.0 %
     Скорость извлечения 1.8 X
     Качество трека 100.0 %
     CRC теста 625EC25C
     CRC копии 625EC25C
     Трек не обнаружен в базе AccurateRip
     Копирование... OK
Трек  9
     Имя файла E:\_VIDEO\_seriaЛЫ_\!!!muz\Любэ Лучшие Песни 1989 - 2015 (2015) [3xCD]\Лучшие Песни 1989-1994\09 За тебя.wav
     Длина предзазора  0:00:01.62
     Пиковый уровень 97.1 %
     Скорость извлечения 1.9 X
     Качество трека 100.0 %
     CRC теста 807CD8E4
     CRC копии 807CD8E4
     Трек не обнаружен в базе AccurateRip
     Копирование... OK
Трек 10
     Имя файла E:\_VIDEO\_seriaЛЫ_\!!!muz\Любэ Лучшие Песни 1989 - 2015 (2015) [3xCD]\Лучшие Песни 1989-1994\10 Трамвай пятёрочка.wav
     Длина предзазора  0:00:01.62
     Пиковый уровень 97.0 %
     Скорость извлечения 2.0 X
     Качество трека 100.0 %
     CRC теста C5F024FF
     CRC копии C5F024FF
     Трек не обнаружен в базе AccurateRip
     Копирование... OK
Трек 11
     Имя файла E:\_VIDEO\_seriaЛЫ_\!!!muz\Любэ Лучшие Песни 1989 - 2015 (2015) [3xCD]\Лучшие Песни 1989-1994\11 Старый барин.wav
     Длина предзазора  0:00:01.62
     Пиковый уровень 97.0 %
     Скорость извлечения 2.0 X
     Качество трека 100.0 %
     CRC теста 5EC1B662
     CRC копии 5EC1B662
     Трек не обнаружен в базе AccurateRip
     Копирование... OK
Трек 12
     Имя файла E:\_VIDEO\_seriaЛЫ_\!!!muz\Любэ Лучшие Песни 1989 - 2015 (2015) [3xCD]\Лучшие Песни 1989-1994\12 Ша.wav
     Длина предзазора  0:00:01.62
     Пиковый уровень 97.0 %
     Скорость извлечения 1.9 X
     Качество трека 99.9 %
     CRC теста 524BEF57
     CRC копии 524BEF57
     Трек не обнаружен в базе AccurateRip
     Копирование... OK
Трек 13
     Имя файла E:\_VIDEO\_seriaЛЫ_\!!!muz\Любэ Лучшие Песни 1989 - 2015 (2015) [3xCD]\Лучшие Песни 1989-1994\13 Сирота Казанская.wav
     Длина предзазора  0:00:01.62
     Пиковый уровень 72.8 %
     Скорость извлечения 2.2 X
     Качество трека 100.0 %
     CRC теста 2BDCB163
     CRC копии 2BDCB163
     Трек не обнаружен в базе AccurateRip
     Копирование... OK
Трек 14
     Имя файла E:\_VIDEO\_seriaЛЫ_\!!!muz\Любэ Лучшие Песни 1989 - 2015 (2015) [3xCD]\Лучшие Песни 1989-1994\14 Дорога.wav
     Длина предзазора  0:00:01.62
     Пиковый уровень 78.5 %
     Скорость извлечения 2.3 X
     Качество трека 100.0 %
     CRC теста D4108C03
     CRC копии D4108C03
     Трек не обнаружен в базе AccurateRip
     Копирование... OK
Трек 15
     Имя файла E:\_VIDEO\_seriaЛЫ_\!!!muz\Любэ Лучшие Песни 1989 - 2015 (2015) [3xCD]\Лучшие Песни 1989-1994\15 На воле.wav
     Длина предзазора  0:00:01.62
     Пиковый уровень 78.5 %
     Скорость извлечения 2.4 X
     Качество трека 100.0 %
     CRC теста F89BA3F5
     CRC копии F89BA3F5
     Трек не обнаружен в базе AccurateRip
     Копирование... OK
Трек 16
     Имя файла E:\_VIDEO\_seriaЛЫ_\!!!muz\Любэ Лучшие Песни 1989 - 2015 (2015) [3xCD]\Лучшие Песни 1989-1994\16 Белый лебедь.wav
     Длина предзазора  0:00:01.62
     Пиковый уровень 97.0 %
     Скорость извлечения 2.5 X
     Качество трека 100.0 %
     CRC теста E59075F9
     CRC копии E59075F9
     Трек не обнаружен в базе AccurateRip
     Копирование... OK
Трек 17
     Имя файла E:\_VIDEO\_seriaЛЫ_\!!!muz\Любэ Лучшие Песни 1989 - 2015 (2015) [3xCD]\Лучшие Песни 1989-1994\17 Младшая сестрёнка.wav
     Длина предзазора  0:00:01.62
     Пиковый уровень 78.5 %
     Скорость извлечения 2.2 X
     Качество трека 99.9 %
     CRC теста 0547042B
     CRC копии 0547042B
     Трек не обнаружен в базе AccurateRip
     Копирование... OK
Трек 18
     Имя файла E:\_VIDEO\_seriaЛЫ_\!!!muz\Любэ Лучшие Песни 1989 - 2015 (2015) [3xCD]\Лучшие Песни 1989-1994\18 Конь.wav
     Длина предзазора  0:00:01.62
     Пиковый уровень 73.6 %
     Скорость извлечения 2.5 X
     Качество трека 100.0 %
     CRC теста B2818E86
     CRC копии B2818E86
     Трек не обнаружен в базе AccurateRip
     Копирование... OK
Ни одного трека нет в базе AccurateRip
Ошибок не произошло
Конец отчёта
==== Контрольная сумма отчёта 5B45329E18D46D279586CB27FF9AD464275AF6D2AE9B1A19FD9523389ACB689E ====
-

Лучшие Песни 1995-2000

01. Скоро дембель (3:58)
02. Улочки московские (4:19)
03. Шагом марш (3:39)
04. Самоволочка (3:13)
05. Главное, что ты есть у меня (3:46)
06. Комбат (5:06)
07. Там за туманами (3:47)
08. Годы (4:20)
09. Скворцы (4:41)
10. Ишо (3:29)
11. Ребята с нашего двора (5:24)
12. Полустаночки (3:28)
13. Старые друзья (3:51)
14. Солдат (5:07)
15. После войны (3:50)
16. Позови меня тихо по имени (2:42)
17. Дед (3:56)
18. Прорвёмся! (Опера) (4:02)-Продолжительность: 01:12:37

Лог создания рипа

Exact Audio Copy V1.0 beta 3 from 29. August 2011
Отчёт EAC об извлечении, выполненном 7. марта 2015, 13:34
Любэ / Лучшие Песни 1995-2000
Дисковод: PIONEER DVD-RW  DVR-218L   Adapter: 0  ID: 0
Режим чтения                 : Достоверность
Использование точного потока : Да
Отключение кэша аудио        : Да
Использование указателей C2  : Нет
Коррекция смещения при чтении                     : 6
Способность читать области Lead-in и Lead-out     : Нет
Заполнение пропущенных сэмплов тишиной            : Да
Удаление блоков с тишиной в начале и конце        : Нет
При вычислениях CRC использовались нулевые сэмплы : Да
Интерфейс                                         : Встроенный Win32-интерфейс для Win NT/2000
Обработка зазоров                                 : Добавлено к предыдущему треку
Выходной формат          : Пользовательский кодировщик
Выбранный битрейт        : 128 kBit/s
Качество                 : Высокий
Добавление ID3-тега      : Нет
Утилита сжатия           : C:\Program Files (x86)\Exact Audio Copy\Flac\flac.exe
Дополнительные параметры : -V -7 -T "Genre=%genre%" -T "Artist=%artist%" -T "Title=%title%" -T "Album=%albumtitle%" -T "Date=%year%" -T "Tracknumber=%tracknr%" -T "Comment=%comment%" %source%
TOC извлечённого CD
     Трек |   Старт  | Длительность | Начальный сектор | Конечный сектор
    ---------------------------------------------------------------------
       1  |  0:00.00 |    3:57.69   |           0      |      17843
       2  |  3:57.69 |    4:19.00   |       17844      |      37268
       3  |  8:16.69 |    3:39.07   |       37269      |      53700
       4  | 11:56.01 |    3:13.34   |       53701      |      68209
       5  | 15:09.35 |    3:46.02   |       68210      |      85161
       6  | 18:55.37 |    5:05.42   |       85162      |     108078
       7  | 24:01.04 |    3:46.54   |      108079      |     125082
       8  | 27:47.58 |    4:19.70   |      125083      |     144577
       9  | 32:07.53 |    4:40.52   |      144578      |     165629
      10  | 36:48.30 |    3:28.65   |      165630      |     181294
      11  | 40:17.20 |    5:24.07   |      181295      |     205601
      12  | 45:41.27 |    3:28.22   |      205602      |     221223
      13  | 49:09.49 |    3:51.24   |      221224      |     238572
      14  | 53:00.73 |    5:06.74   |      238573      |     261596
      15  | 58:07.72 |    3:49.62   |      261597      |     278833
      16  | 61:57.59 |    2:41.57   |      278834      |     290965
      17  | 64:39.41 |    3:55.45   |      290966      |     308635
      18  | 68:35.11 |    4:01.51   |      308636      |     326761
Трек  1
     Имя файла E:\_VIDEO\_seriaЛЫ_\!!!muz\Любэ Лучшие Песни 1989 - 2015 (2015) [3xCD]\Лучшие Песни 1995-2000\01 Скоро дембель.wav
     Длина предзазора  0:00:02.00
     Пиковый уровень 89.5 %
     Скорость извлечения 1.2 X
     Качество трека 100.0 %
     CRC теста 3084E056
     CRC копии 3084E056
     Трек не обнаружен в базе AccurateRip
     Копирование... OK
Трек  2
     Имя файла E:\_VIDEO\_seriaЛЫ_\!!!muz\Любэ Лучшие Песни 1989 - 2015 (2015) [3xCD]\Лучшие Песни 1995-2000\02 Улочки московские.wav
     Длина предзазора  0:00:01.62
     Пиковый уровень 80.4 %
     Скорость извлечения 1.3 X
     Качество трека 100.0 %
     CRC теста A139389C
     CRC копии A139389C
     Трек не обнаружен в базе AccurateRip
     Копирование... OK
Трек  3
     Имя файла E:\_VIDEO\_seriaЛЫ_\!!!muz\Любэ Лучшие Песни 1989 - 2015 (2015) [3xCD]\Лучшие Песни 1995-2000\03 Шагом марш.wav
     Длина предзазора  0:00:01.62
     Пиковый уровень 89.3 %
     Скорость извлечения 1.2 X
     Качество трека 99.9 %
     CRC теста 44AFCF56
     CRC копии 44AFCF56
     Трек не обнаружен в базе AccurateRip
     Копирование... OK
Трек  4
     Имя файла E:\_VIDEO\_seriaЛЫ_\!!!muz\Любэ Лучшие Песни 1989 - 2015 (2015) [3xCD]\Лучшие Песни 1995-2000\04 Самоволочка.wav
     Длина предзазора  0:00:01.62
     Пиковый уровень 83.7 %
     Скорость извлечения 1.4 X
     Качество трека 100.0 %
     CRC теста D127B4ED
     CRC копии D127B4ED
     Трек не обнаружен в базе AccurateRip
     Копирование... OK
Трек  5
     Имя файла E:\_VIDEO\_seriaЛЫ_\!!!muz\Любэ Лучшие Песни 1989 - 2015 (2015) [3xCD]\Лучшие Песни 1995-2000\05 Главное, что ты есть у меня.wav
     Длина предзазора  0:00:01.62
     Пиковый уровень 89.4 %
     Скорость извлечения 1.5 X
     Качество трека 100.0 %
     CRC теста 9F381C2D
     CRC копии 9F381C2D
     Трек не обнаружен в базе AccurateRip
     Копирование... OK
Трек  6
     Имя файла E:\_VIDEO\_seriaЛЫ_\!!!muz\Любэ Лучшие Песни 1989 - 2015 (2015) [3xCD]\Лучшие Песни 1995-2000\06 Комбат.wav
     Длина предзазора  0:00:01.62
     Пиковый уровень 84.1 %
     Скорость извлечения 1.7 X
     Качество трека 100.0 %
     CRC теста FA1E4734
     CRC копии FA1E4734
     Трек не обнаружен в базе AccurateRip
     Копирование... OK
Трек  7
     Имя файла E:\_VIDEO\_seriaЛЫ_\!!!muz\Любэ Лучшие Песни 1989 - 2015 (2015) [3xCD]\Лучшие Песни 1995-2000\07 Там за туманами.wav
     Длина предзазора  0:00:01.62
     Пиковый уровень 97.0 %
     Скорость извлечения 1.5 X
     Качество трека 99.9 %
     CRC теста 818F5FEF
     CRC копии 818F5FEF
     Трек не обнаружен в базе AccurateRip
     Копирование... OK
Трек  8
     Имя файла E:\_VIDEO\_seriaЛЫ_\!!!muz\Любэ Лучшие Песни 1989 - 2015 (2015) [3xCD]\Лучшие Песни 1995-2000\08 Годы.wav
     Длина предзазора  0:00:01.62
     Пиковый уровень 96.8 %
     Скорость извлечения 1.6 X
     Качество трека 99.9 %
     CRC теста 8D41F4B3
     CRC копии 8D41F4B3
     Трек не обнаружен в базе AccurateRip
     Копирование... OK
Трек  9
     Имя файла E:\_VIDEO\_seriaЛЫ_\!!!muz\Любэ Лучшие Песни 1989 - 2015 (2015) [3xCD]\Лучшие Песни 1995-2000\09 Скворцы.wav
     Длина предзазора  0:00:01.62
     Пиковый уровень 97.0 %
     Скорость извлечения 2.0 X
     Качество трека 100.0 %
     CRC теста B89A3228
     CRC копии B89A3228
     Трек не обнаружен в базе AccurateRip
     Копирование... OK
Трек 10
     Имя файла E:\_VIDEO\_seriaЛЫ_\!!!muz\Любэ Лучшие Песни 1989 - 2015 (2015) [3xCD]\Лучшие Песни 1995-2000\10 Ишо.wav
     Длина предзазора  0:00:01.62
     Пиковый уровень 97.0 %
     Скорость извлечения 2.0 X
     Качество трека 100.0 %
     CRC теста 5EF6B780
     CRC копии 5EF6B780
     Трек не обнаружен в базе AccurateRip
     Копирование... OK
Трек 11
     Имя файла E:\_VIDEO\_seriaЛЫ_\!!!muz\Любэ Лучшие Песни 1989 - 2015 (2015) [3xCD]\Лучшие Песни 1995-2000\11 Ребята с нашего двора.wav
     Длина предзазора  0:00:01.62
     Пиковый уровень 95.3 %
     Скорость извлечения 2.2 X
     Качество трека 100.0 %
     CRC теста 89039116
     CRC копии 89039116
     Трек не обнаружен в базе AccurateRip
     Копирование... OK
Трек 12
     Имя файла E:\_VIDEO\_seriaЛЫ_\!!!muz\Любэ Лучшие Песни 1989 - 2015 (2015) [3xCD]\Лучшие Песни 1995-2000\12 Полустаночки.wav
     Длина предзазора  0:00:01.62
     Пиковый уровень 97.0 %
     Скорость извлечения 2.1 X
     Качество трека 100.0 %
     CRC теста 53025CCC
     CRC копии 53025CCC
     Трек не обнаружен в базе AccurateRip
     Копирование... OK
Трек 13
     Имя файла E:\_VIDEO\_seriaЛЫ_\!!!muz\Любэ Лучшие Песни 1989 - 2015 (2015) [3xCD]\Лучшие Песни 1995-2000\13 Старые друзья.wav
     Длина предзазора  0:00:01.62
     Пиковый уровень 96.2 %
     Скорость извлечения 2.2 X
     Качество трека 100.0 %
     CRC теста 0A8A57D8
     CRC копии 0A8A57D8
     Трек не обнаружен в базе AccurateRip
     Копирование... OK
Трек 14
     Имя файла E:\_VIDEO\_seriaЛЫ_\!!!muz\Любэ Лучшие Песни 1989 - 2015 (2015) [3xCD]\Лучшие Песни 1995-2000\14 Солдат.wav
     Длина предзазора  0:00:01.62
     Пиковый уровень 96.8 %
     Скорость извлечения 2.3 X
     Качество трека 100.0 %
     CRC теста 0F0C741A
     CRC копии 0F0C741A
     Трек не обнаружен в базе AccurateRip
     Копирование... OK
Трек 15
     Имя файла E:\_VIDEO\_seriaЛЫ_\!!!muz\Любэ Лучшие Песни 1989 - 2015 (2015) [3xCD]\Лучшие Песни 1995-2000\15 После войны.wav
     Длина предзазора  0:00:01.62
     Пиковый уровень 97.0 %
     Скорость извлечения 2.3 X
     Качество трека 100.0 %
     CRC теста 9A6A573A
     CRC копии 9A6A573A
     Трек не обнаружен в базе AccurateRip
     Копирование... OK
Трек 16
     Имя файла E:\_VIDEO\_seriaЛЫ_\!!!muz\Любэ Лучшие Песни 1989 - 2015 (2015) [3xCD]\Лучшие Песни 1995-2000\16 Позови меня тихо по имени.wav
     Длина предзазора  0:00:01.62
     Пиковый уровень 90.6 %
     Скорость извлечения 2.2 X
     Качество трека 100.0 %
     CRC теста F0061D0C
     CRC копии F0061D0C
     Трек не обнаружен в базе AccurateRip
     Копирование... OK
Трек 17
     Имя файла E:\_VIDEO\_seriaЛЫ_\!!!muz\Любэ Лучшие Песни 1989 - 2015 (2015) [3xCD]\Лучшие Песни 1995-2000\17 Дед.wav
     Длина предзазора  0:00:01.62
     Пиковый уровень 97.0 %
     Скорость извлечения 2.4 X
     Качество трека 100.0 %
     CRC теста BB50BD54
     CRC копии BB50BD54
     Трек не обнаружен в базе AccurateRip
     Копирование... OK
Трек 18
     Имя файла E:\_VIDEO\_seriaЛЫ_\!!!muz\Любэ Лучшие Песни 1989 - 2015 (2015) [3xCD]\Лучшие Песни 1995-2000\18 Прорвёмся! (Опера).wav
     Длина предзазора  0:00:01.62
     Пиковый уровень 97.0 %
     Скорость извлечения 2.2 X
     Качество трека 99.9 %
     CRC теста B32488FB
     CRC копии B32488FB
     Трек не обнаружен в базе AccurateRip
     Копирование... OK
Ни одного трека нет в базе AccurateRip
Ошибок не произошло
Конец отчёта
==== Контрольная сумма отчёта F3ED07814B1CEEDBBA704246AC72093C7122D80072083837CBE08A619BD08348 ====
-

Лучшие Песни 2001-2015

01. Берёзы (2:52)
02. Краса (Ты неси меня река) (3:36)
03. Две подружки (4:09)
04. Поёт гитара (4:03)
05. Охота (3:25)
06. Давай за ... (4:10)
07. От Волги до Енисея (3:39)
08. Русские (3:35)
09. Не смотри на часы (3:29)
10. По высокой траве (feat. офицеры группы 'Альфа') (4:22)
11. Многая лета русской земле (4:17)
12. Верка (3:48)
13. Если ... (2:04)
14. Всё опять (3:56)
15. Заимка (2:33)
16. Москвички (3:30)
17. Подруга (3:39)
18. Свои (feat. Г. Лепс) (3:58)
19. Мой адмирал (feat. Вика Дайнеко) (4:20)
20. А заря (2:45)
21. Просто любовь (feat. группа КОРНИ и группа In2Nation) (3:14)
22. Долго (feat. Людмила Соколова) [скрытый трек] (2:40)-Продолжительность: 01:18:04

Лог создания рипа

Exact Audio Copy V1.0 beta 3 from 29. August 2011
Отчёт EAC об извлечении, выполненном 8. марта 2015, 11:37
Любэ / Лучшие Песни 2001-2015
Дисковод: PIONEER DVD-RW  DVR-218L   Adapter: 0  ID: 0
Режим чтения                 : Достоверность
Использование точного потока : Да
Отключение кэша аудио        : Да
Использование указателей C2  : Нет
Коррекция смещения при чтении                     : 6
Способность читать области Lead-in и Lead-out     : Нет
Заполнение пропущенных сэмплов тишиной            : Да
Удаление блоков с тишиной в начале и конце        : Нет
При вычислениях CRC использовались нулевые сэмплы : Да
Интерфейс                                         : Встроенный Win32-интерфейс для Win NT/2000
Обработка зазоров                                 : Добавлено к предыдущему треку
Выходной формат          : Пользовательский кодировщик
Выбранный битрейт        : 128 kBit/s
Качество                 : Высокий
Добавление ID3-тега      : Нет
Утилита сжатия           : C:\Program Files (x86)\Exact Audio Copy\Flac\flac.exe
Дополнительные параметры : -V -7 -T "Genre=%genre%" -T "Artist=%artist%" -T "Title=%title%" -T "Album=%albumtitle%" -T "Date=%year%" -T "Tracknumber=%tracknr%" -T "Comment=%comment%" %source%
TOC извлечённого CD
     Трек |   Старт  | Длительность | Начальный сектор | Конечный сектор
    ---------------------------------------------------------------------
       1  |  0:00.00 |    2:51.66   |           0      |      12890
       2  |  2:51.66 |    3:35.67   |       12891      |      29082
       3  |  6:27.58 |    4:08.43   |       29083      |      47725
       4  | 10:36.26 |    4:03.07   |       47726      |      65957
       5  | 14:39.33 |    3:25.24   |       65958      |      81356
       6  | 18:04.57 |    4:09.73   |       81357      |     100104
       7  | 22:14.55 |    3:39.06   |      100105      |     116535
       8  | 25:53.61 |    3:35.28   |      116536      |     132688
       9  | 29:29.14 |    3:28.47   |      132689      |     148335
      10  | 32:57.61 |    4:22.22   |      148336      |     168007
      11  | 37:20.08 |    4:16.63   |      168008      |     187270
      12  | 41:36.71 |    3:48.26   |      187271      |     204396
      13  | 45:25.22 |    2:04.00   |      204397      |     213696
      14  | 47:29.22 |    3:55.73   |      213697      |     231394
      15  | 51:25.20 |    2:33.21   |      231395      |     242890
      16  | 53:58.41 |    3:30.11   |      242891      |     258651
      17  | 57:28.52 |    3:38.53   |      258652      |     275054
      18  | 61:07.30 |    3:58.32   |      275055      |     292936
      19  | 65:05.62 |    4:19.43   |      292937      |     312404
      20  | 69:25.30 |    2:44.44   |      312405      |     324748
      21  | 72:09.74 |    3:14.11   |      324749      |     339309
      22  | 75:24.10 |    2:39.47   |      339310      |     351281
Трек  1
     Имя файла E:\_VIDEO\_seriaЛЫ_\!!!muz\Любэ Лучшие Песни 1989 - 2015 (2015) [3xCD]\Лучшие Песни 2001-2015\01 Берёзы.wav
     Длина предзазора  0:00:02.00
     Пиковый уровень 97.0 %
     Скорость извлечения 1.1 X
     Качество трека 100.0 %
     CRC теста D54FF697
     CRC копии D54FF697
     Трек не обнаружен в базе AccurateRip
     Копирование... OK
Трек  2
     Имя файла E:\_VIDEO\_seriaЛЫ_\!!!muz\Любэ Лучшие Песни 1989 - 2015 (2015) [3xCD]\Лучшие Песни 2001-2015\02 Краса (Ты неси меня река).wav
     Длина предзазора  0:00:01.62
     Пиковый уровень 97.0 %
     Скорость извлечения 1.3 X
     Качество трека 100.0 %
     CRC теста 8906B5EF
     CRC копии 8906B5EF
     Трек не обнаружен в базе AccurateRip
     Копирование... OK
Трек  3
     Имя файла E:\_VIDEO\_seriaЛЫ_\!!!muz\Любэ Лучшие Песни 1989 - 2015 (2015) [3xCD]\Лучшие Песни 2001-2015\03 Две подружки.wav
     Длина предзазора  0:00:01.62
     Пиковый уровень 97.1 %
     Скорость извлечения 1.4 X
     Качество трека 100.0 %
     CRC теста 643EDBAA
     CRC копии 643EDBAA
     Трек не обнаружен в базе AccurateRip
     Копирование... OK
Трек  4
     Имя файла E:\_VIDEO\_seriaЛЫ_\!!!muz\Любэ Лучшие Песни 1989 - 2015 (2015) [3xCD]\Лучшие Песни 2001-2015\04 Поёт гитара.wav
     Длина предзазора  0:00:01.62
     Пиковый уровень 97.0 %
     Скорость извлечения 1.5 X
     Качество трека 100.0 %
     CRC теста 02822F12
     CRC копии 02822F12
     Трек не обнаружен в базе AccurateRip
     Копирование... OK
Трек  5
     Имя файла E:\_VIDEO\_seriaЛЫ_\!!!muz\Любэ Лучшие Песни 1989 - 2015 (2015) [3xCD]\Лучшие Песни 2001-2015\05 Охота.wav
     Длина предзазора  0:00:01.62
     Пиковый уровень 97.1 %
     Скорость извлечения 1.5 X
     Качество трека 100.0 %
     CRC теста 89785C59
     CRC копии 89785C59
     Трек не обнаружен в базе AccurateRip
     Копирование... OK
Трек  6
     Имя файла E:\_VIDEO\_seriaЛЫ_\!!!muz\Любэ Лучшие Песни 1989 - 2015 (2015) [3xCD]\Лучшие Песни 2001-2015\06 Давай за ....wav
     Длина предзазора  0:00:01.62
     Пиковый уровень 97.0 %
     Скорость извлечения 1.5 X
     Качество трека 99.9 %
     CRC теста 4FBAAAE7
     CRC копии 4FBAAAE7
     Трек не обнаружен в базе AccurateRip
     Копирование... OK
Трек  7
     Имя файла E:\_VIDEO\_seriaЛЫ_\!!!muz\Любэ Лучшие Песни 1989 - 2015 (2015) [3xCD]\Лучшие Песни 2001-2015\07 От Волги до Енисея.wav
     Длина предзазора  0:00:01.62
     Пиковый уровень 97.0 %
     Скорость извлечения 1.7 X
     Качество трека 100.0 %
     CRC теста 7748A0E6
     CRC копии 7748A0E6
     Трек не обнаружен в базе AccurateRip
     Копирование... OK
Трек  8
     Имя файла E:\_VIDEO\_seriaЛЫ_\!!!muz\Любэ Лучшие Песни 1989 - 2015 (2015) [3xCD]\Лучшие Песни 2001-2015\08 Русские.wav
     Длина предзазора  0:00:01.62
     Пиковый уровень 97.0 %
     Скорость извлечения 1.8 X
     Качество трека 100.0 %
     CRC теста 3A561A04
     CRC копии 3A561A04
     Трек не обнаружен в базе AccurateRip
     Копирование... OK
Трек  9
     Имя файла E:\_VIDEO\_seriaЛЫ_\!!!muz\Любэ Лучшие Песни 1989 - 2015 (2015) [3xCD]\Лучшие Песни 2001-2015\09 Не смотри на часы.wav
     Длина предзазора  0:00:01.62
     Пиковый уровень 97.0 %
     Скорость извлечения 1.8 X
     Качество трека 100.0 %
     CRC теста 498D1621
     CRC копии 498D1621
     Трек не обнаружен в базе AccurateRip
     Копирование... OK
Трек 10
     Имя файла E:\_VIDEO\_seriaЛЫ_\!!!muz\Любэ Лучшие Песни 1989 - 2015 (2015) [3xCD]\Лучшие Песни 2001-2015\10 По высокой траве (feat. офицеры группы ''Альфа'').wav
     Длина предзазора  0:00:01.62
     Пиковый уровень 97.0 %
     Скорость извлечения 1.7 X
     Качество трека 99.9 %
     CRC теста 5F778070
     CRC копии 5F778070
     Трек не обнаружен в базе AccurateRip
     Копирование... OK
Трек 11
     Имя файла E:\_VIDEO\_seriaЛЫ_\!!!muz\Любэ Лучшие Песни 1989 - 2015 (2015) [3xCD]\Лучшие Песни 2001-2015\11 Многая лета русской земле.wav
     Длина предзазора  0:00:01.62
     Пиковый уровень 95.5 %
     Скорость извлечения 2.0 X
     Качество трека 100.0 %
     CRC теста 2CE46554
     CRC копии 2CE46554
     Трек не обнаружен в базе AccurateRip
     Копирование... OK
Трек 12
     Имя файла E:\_VIDEO\_seriaЛЫ_\!!!muz\Любэ Лучшие Песни 1989 - 2015 (2015) [3xCD]\Лучшие Песни 2001-2015\12 Верка.wav
     Длина предзазора  0:00:01.62
     Пиковый уровень 89.6 %
     Скорость извлечения 2.1 X
     Качество трека 100.0 %
     CRC теста 51FE28B8
     CRC копии 51FE28B8
     Трек не обнаружен в базе AccurateRip
     Копирование... OK
Трек 13
     Имя файла E:\_VIDEO\_seriaЛЫ_\!!!muz\Любэ Лучшие Песни 1989 - 2015 (2015) [3xCD]\Лучшие Песни 2001-2015\13 Если ....wav
     Длина предзазора  0:00:01.62
     Пиковый уровень 97.1 %
     Скорость извлечения 1.9 X
     Качество трека 100.0 %
     CRC теста 5DA95606
     CRC копии 5DA95606
     Трек не обнаружен в базе AccurateRip
     Копирование... OK
Трек 14
     Имя файла E:\_VIDEO\_seriaЛЫ_\!!!muz\Любэ Лучшие Песни 1989 - 2015 (2015) [3xCD]\Лучшие Песни 2001-2015\14 Всё опять.wav
     Длина предзазора  0:00:01.62
     Пиковый уровень 97.1 %
     Скорость извлечения 2.2 X
     Качество трека 100.0 %
     CRC теста 347D8B21
     CRC копии 347D8B21
     Трек не обнаружен в базе AccurateRip
     Копирование... OK
Трек 15
     Имя файла E:\_VIDEO\_seriaЛЫ_\!!!muz\Любэ Лучшие Песни 1989 - 2015 (2015) [3xCD]\Лучшие Песни 2001-2015\15 Заимка.wav
     Длина предзазора  0:00:01.62
     Пиковый уровень 89.5 %
     Скорость извлечения 2.1 X
     Качество трека 100.0 %
     CRC теста 4536CF5C
     CRC копии 4536CF5C
     Трек не обнаружен в базе AccurateRip
     Копирование... OK
Трек 16
     Имя файла E:\_VIDEO\_seriaЛЫ_\!!!muz\Любэ Лучшие Песни 1989 - 2015 (2015) [3xCD]\Лучшие Песни 2001-2015\16 Москвички.wav
     Длина предзазора  0:00:01.62
     Пиковый уровень 90.4 %
     Скорость извлечения 2.0 X
     Качество трека 99.9 %
     CRC теста 2EE81BAE
     CRC копии 2EE81BAE
     Трек не обнаружен в базе AccurateRip
     Копирование... OK
Трек 17
     Имя файла E:\_VIDEO\_seriaЛЫ_\!!!muz\Любэ Лучшие Песни 1989 - 2015 (2015) [3xCD]\Лучшие Песни 2001-2015\17 Подруга.wav
     Длина предзазора  0:00:01.62
     Пиковый уровень 89.9 %
     Скорость извлечения 2.3 X
     Качество трека 100.0 %
     CRC теста 92F3F053
     CRC копии 92F3F053
     Трек не обнаружен в базе AccurateRip
     Копирование... OK
Трек 18
     Имя файла E:\_VIDEO\_seriaЛЫ_\!!!muz\Любэ Лучшие Песни 1989 - 2015 (2015) [3xCD]\Лучшие Песни 2001-2015\18 Свои (feat. Г. Лепс).wav
     Длина предзазора  0:00:01.62
     Пиковый уровень 84.8 %
     Скорость извлечения 2.4 X
     Качество трека 100.0 %
     CRC теста 5698EAAE
     CRC копии 5698EAAE
     Трек не обнаружен в базе AccurateRip
     Копирование... OK
Трек 19
     Имя файла E:\_VIDEO\_seriaЛЫ_\!!!muz\Любэ Лучшие Песни 1989 - 2015 (2015) [3xCD]\Лучшие Песни 2001-2015\19 Мой адмирал (feat. Вика Дайнеко).wav
     Длина предзазора  0:00:01.62
     Пиковый уровень 89.0 %
     Скорость извлечения 2.2 X
     Качество трека 99.9 %
     CRC теста 04D90DD1
     CRC копии 04D90DD1
     Трек не обнаружен в базе AccurateRip
     Копирование... OK
Трек 20
     Имя файла E:\_VIDEO\_seriaЛЫ_\!!!muz\Любэ Лучшие Песни 1989 - 2015 (2015) [3xCD]\Лучшие Песни 2001-2015\20 А заря.wav
     Длина предзазора  0:00:01.62
     Пиковый уровень 89.4 %
     Скорость извлечения 2.4 X
     Качество трека 100.0 %
     CRC теста A89494FE
     CRC копии A89494FE
     Трек не обнаружен в базе AccurateRip
     Копирование... OK
Трек 21
     Имя файла E:\_VIDEO\_seriaЛЫ_\!!!muz\Любэ Лучшие Песни 1989 - 2015 (2015) [3xCD]\Лучшие Песни 2001-2015\21 Просто любовь (feat. группа КОРНИ и группа In2Nation).wav
     Длина предзазора  0:00:01.62
     Пиковый уровень 88.5 %
     Скорость извлечения 2.5 X
     Качество трека 100.0 %
     CRC теста 1A714253
     CRC копии 1A714253
     Трек не обнаружен в базе AccurateRip
     Копирование... OK
Трек 22
     Имя файла E:\_VIDEO\_seriaЛЫ_\!!!muz\Любэ Лучшие Песни 1989 - 2015 (2015) [3xCD]\Лучшие Песни 2001-2015\22 Долго (feat. Людмила Соколова) [скрытый трек].wav
     Длина предзазора  0:00:01.55
     Пиковый уровень 97.0 %
     Скорость извлечения 2.4 X
     Качество трека 100.0 %
     CRC теста D46D6CD6
     CRC копии D46D6CD6
     Трек не обнаружен в базе AccurateRip
     Копирование... OK
Ни одного трека нет в базе AccurateRip
Ошибок не произошло
Конец отчёта
==== Контрольная сумма отчёта 49354CB94DA27DE59E2B6FF786A722C034601BB145834385140EA3C553B4EE2C ====
-
Яндекс.Метрика
Рейтинг@Mail.ru