Букашки. Приключение в Долине муравьев / Minuscule - La vallée des fourmis perdues (2013) BDRip [1080p] 3D [Вертикальная анаморфная стереопара]

 

Создавать темы 10-Мар-2015 15:04

-Букашки. Приключение в Долине муравьев / Minuscule - La vallée des fourmis perdues (2013) BDRip«Самые гигантские планы - у самых маленьких!»- Год выпуска: 2013
Производство: Франция | Futurikon, Entre Chien et Loup, Futurikon Production II
Жанр: Мультфильм, Семейный, Приключения
Описание:
Активные и любознательные черные муравьишки обнаруживают брошенную после пикника коробку с сахаром. Дружный отряд муравьишек вместе с Божьей коровкой решают переправить лакомство в муравейник. Но сладкая коробка уже успела нарушить спокойствие во всей долине, и свои планы на лакомство появились у других обитателей леса, в частности — у злобных красных муравьев-захватчиков. А, стало быть, на пути к заветной цели черным муравьишкам предстоит преодолеть массу опасностей и приключений.-Режиссер: Хелен Жиро, Томас Забо
Продолжительность: 01:28:50
Качество видео: BDRip
Перевод: Не требуется
Вид субтитров: Отсутствуют-Дата мировой премьеры: 17 ноября 2013
Дата российской премьеры: 29 мая 2014, «Каравелла DDC»
Дата выхода DVD релиза: 7 августа 2014, «CD Land»-Видеокодек: MPEG-4 AVC/H.264
Битрейт видео: ~13,8 Мбит/сек
Размер кадра: 1920x1080
Аудиокодек: AC3 5.1
Битрейт аудио: 640 Кбит/сек-

Media info:

Общее
Уникальный идентификатор : 249963653160404689415706828123297725388 (0xBC0D3F9B45801A62ADB99FFDC226BBCC)
Полное имя : F:\my films\MINUSCULE_3D.mkv
Формат : Matroska
Версия формата : Version 2
Размер файла : 8,93 Гбайт
Продолжительность : 1 ч. 28 м.
Общий поток : 14,4 Мбит/сек
Название фильма : MINUSCULE_3D_Crop_O/U
Дата кодирования : UTC 2014-10-01 15:48:44
Программа кодирования : mkvmerge v5.7.0 ('The Whirlwind') built on Aug 7 2012 14:11:40
Библиотека кодирования : libebml v1.2.3 + libmatroska v1.3.0
Видео
Идентификатор : 1
Формат : AVC
Формат/Информация : Advanced Video Codec
Профиль формата : [url=mailto:[email protected]][email protected][/url]
Параметр CABAC формата : Да
Параметр ReFrames формата : 4 кадра
Идентификатор кодека : V_MPEG4/ISO/AVC
Продолжительность : 1 ч. 28 м.
Битрейт : 13,8 Мбит/сек
Ширина : 1920 пикселей
Высота : 1080 пикселей
Соотношение сторон : 16:9
Режим частоты кадров : Постоянный
Частота кадров : 23,976 кадра/сек
Цветовое пространство : YUV
Субдискретизация насыщенности : 4:2:0
Битовая глубина : 8 бит
Тип развёртки : Прогрессивная
Бит/(Пиксели*Кадры) : 0.277
Размер потока : 8,36 Гбайт (94%)
Заголовок : rip by I/N
Библиотека кодирования : x264 core 128 r2216M 198a7ea
Настройки программы : cabac=1 / ref=4 / deblock=1:-3:-3 / analyse=0x3:0x133 / me=umh / subme=10 / psy=1 / psy_rd=1.00:0.15 / mixed_ref=1 / me_range=32 / chroma_me=1 / trellis=2 / 8x8dct=1 / cqm=0 / deadzone=0,0 / fast_pskip=0 / chroma_qp_offset=-3 / threads=8 / lookahead_threads=1 / sliced_threads=0 / nr=0 / decimate=1 / interlaced=0 / bluray_compat=0 / constrained_intra=0 / bframes=8 / b_pyramid=2 / b_adapt=2 / b_bias=0 / direct=3 / weightb=1 / open_gop=0 / weightp=2 / keyint=230 / keyint_min=23 / scenecut=40 / intra_refresh=0 / rc_lookahead=60 / rc=2pass / mbtree=1 / bitrate=13760 / ratetol=1.0 / qcomp=0.60 / qpmin=0 / qpmax=69 / qpstep=4 / cplxblur=20.0 / qblur=0.5 / vbv_maxrate=40000 / vbv_bufsize=30000 / nal_hrd=none / ip_ratio=1.40 / aq=1:1.00
Default : Да
Forced : Нет
Аудио
Идентификатор : 2
Формат : AC-3
Формат/Информация : Audio Coding 3
Расширение режима : CM (complete main)
Параметр Endianness формата : Big
Идентификатор кодека : A_AC3
Продолжительность : 1 ч. 28 м.
Вид битрейта : Постоянный
Битрейт : 640 Кбит/сек
Каналы : 6 каналов
Расположение каналов : Front: L C R, Side: L R, LFE
Частота : 48,0 КГц
Битовая глубина : 16 бит
Метод сжатия : С потерями
Размер потока : 407 Мбайт (4%)
Default : Да
Forced : Нет
Меню
00:00:00.000 : en:00:00:00.000
00:07:47.342 : en:00:07:47.342
00:12:19.280 : en:00:12:19.280
00:20:07.415 : en:00:20:07.415
00:26:19.203 : en:00:26:19.203
00:32:07.801 : en:00:32:07.801
00:37:00.635 : en:00:37:00.635
00:45:58.547 : en:00:45:58.547
00:53:51.061 : en:00:53:51.061
01:00:25.413 : en:01:00:25.413
01:08:05.665 : en:01:08:05.665
01:13:59.602 : en:01:13:59.602
01:19:39.024 : en:01:19:39.024
01:23:12.779 : en:01:23:12.779

Особенности релиза:

Справа и слева у видеоряда обрезано по 199р, что дает возможность просмотра на полный экран (без черных полос) на телевизорах с соотношением сторон 16:9 без изменения пропорций. На мой взгляд плюсы данных рипов- это более глубокое восприятие 3D-эффектов (конечно там где они есть) К минусам отнесу- вынужденное обрезание кадра по бокам. Так-что господа- выбор за вами!
Всем приятного просмотра!
Проверено на встроенном плейере ТВ Samsung-D6500

Скриншоты:


Время раздачи: 24/7 - круглосуточно до 10 скачавших
Яндекс.Метрика
Рейтинг@Mail.ru